↑↓torrent.by
Поиск
Логин: Регистрация
Пароль: Восстановить пароль

Барбоскины на даче (2020) WEBRip 1080p от ELEKTRI4KА | IVI

Скачать barboskiny-na-dache-2020-webrip-1080p-ot-elektri4ka-ivi.torrent
U Магнитная ссылка Размер: 2.82 GB Раздают: 187 Качают: 72 Добавлен: 2021-02-18 17:31:40
Барбоскины на даче (2020) WEBRip 1080p от ELEKTRI4KА | IVI

Название: Барбоскины на даче
Год выхода: 2020
Жанр: Мультфильм, семейный
Режиссер: Елена Галдобина, Федор Дмитриев
В ролях: Екатерина Гороховская, Ксения Бржезовская, Максим Сергеев, Вадим Бочанов, Юлия Зоркина, Михаил Черняк, Мария Цветкова-Овсянникова, Валерий Смекалов, Иван Чабан

О фильме:  Нешуточные страсти кипят на обычной даче, где отдыхает семья Барбоскиных. Коварные противники, фантастические изобретения, великосветские интриги, разбитые сердца и даже шпионские тайны. Справиться со всем этим под силу только настоящему индейцу – Малышу.

Выпущено: Россия / Кинокомпания CTB / СТВ, Анимационная студия «Мельница»
Продолжительность: 01:16:36
Озвучивание: Оригинальное | IVI

Файл
Формат: MKV
Качество: WEBRip 1080p
Видео: MPEG-4 AVC, 5120 Kb/s, 1920x804
Аудио: Russian: 48 kHz, AC3 Dolby Digital, 3/2 (L, C, R, l, r) + LFE ch, ~384 kbps | IVI
Субтитры: Нет
Дополнительно: Нет

Релиз: &


[+] MediaInfo:
Complete name                            : Barboskinyi.na.dache.2020.WEBRip.1080p.ELEKTRI4KA.UNIONGANG.mkv
Format                                   : Matroska
Format version                           : Version 4 / Version 2
File size                                : 2.82 GiB
Duration                                 : 1 h 13 min
Overall bit rate                         : 5 494 kb/s
Movie name                               : Barboskinyi.na.dache.WEBRip.1080p.ELEKTRI4KA.UNIONGANG.
Encoded date                             : UTC 2021-02-17 22:54:49
Writing application                      : mkvmerge v8.3.0 ('Over the Horizon') 64bit
Writing library                          : libebml v1.3.1 + libmatroska v1.4.2

Video
ID                                       : 1
Format                                   : AVC
Format/Info                              : Advanced Video Codec
Format profile                           : High@L4
Format settings, CABAC                   : Yes
Format settings, Reference frames        : 4 frames
Format settings, GOP                     : M=7, N=50
Codec ID                                 : V_MPEG4/ISO/AVC
Duration                                 : 1 h 13 min
Bit rate                                 : 5 120 kb/s
Width                                    : 1 920 pixels
Height                                   : 804 pixels
Display aspect ratio                     : 2.40:1
Frame rate mode                          : Constant
Frame rate                               : 25.000 FPS
Color space                              : YUV
Chroma subsampling                       : 4:2:0
Bit depth                                : 8 bits
Scan type                                : Progressive
Bits/(Pixel*Frame)                       : 0.133
Stream size                              : 2.63 GiB (93%)
Writing library                          : x264 core 148
Encoding settings                        : cabac=1 / ref=3 / deblock=1:0:0 / analyse=0x3:0x113 / me=hex / subme=7 / psy=1 / psy_rd=1.00:0.00 / mixed_ref=1 / me_range=16 / chroma_me=1 / trellis=1 / 8x8dct=1 / cqm=0 / deadzone=21,11 / fast_pskip=1 / chroma_qp_offset=-2 / threads=25 / lookahead_threads=4 / sliced_threads=0 / nr=0 / decimate=1 / interlaced=0 / bluray_compat=0 / constrained_intra=0 / bframes=6 / b_pyramid=2 / b_adapt=1 / b_bias=0 / direct=1 / weightb=1 / open_gop=0 / weightp=2 / keyint=50 / keyint_min=26 / scenecut=0 / intra_refresh=0 / rc_lookahead=40 / rc=2pass / mbtree=1 / bitrate=5120 / ratetol=1.0 / qcomp=0.60 / qpmin=0 / qpmax=69 / qpstep=4 / cplxblur=20.0 / qblur=0.5 / vbv_maxrate=7680 / vbv_bufsize=20480 / nal_hrd=none / filler=0 / ip_ratio=1.40 / aq=1:1.00
Default                                  : Yes
Forced                                   : No

Audio
ID                                       : 2
Format                                   : AC-3
Format/Info                              : Audio Coding 3
Mode extension                           : CM (complete main)
Format settings, Endianness              : Big
Codec ID                                 : A_AC3
Duration                                 : 1 h 13 min
Bit rate mode                            : Constant
Bit rate                                 : 384 kb/s
Channel(s)                               : 6 channels
Channel positions                        : Front: L C R, Side: L R, LFE
Sampling rate                            : 48.0 kHz
Frame rate                               : 31.250 FPS (1536 spf)
Bit depth                                : 16 bits
Compression mode                         : Lossy
Stream size                              : 202 MiB (7%)
Title                                    : Original (IVI)
Language                                 : Russian
Default                                  : Yes
Forced                                   : No



Скриншоты:
[+] Всего файлов в раздаче - 1:
Barboskinyi.na.dache.2020.WEBRip.1080p.ELEKTRI4KA.UNIONGANG.mkv2.82 GB

Похожие раздачи по запросу - барбоскины:
2021-02-20 U Барбоскины на даче (2020) WEBRip от Files-x | IVI 1.46 GB ↑ 98 ↓ 28
2021-02-18 U Барбоскины на даче (2020) WEBRip от ELEKTRI4KА | IVI 1.37 GB ↑ 164 ↓ 65

Отзывы
Зарегистрируйтесь чтобы добавить комментарий.
Загрузите программу
  uTorrent.exe
Обратная связь
Copyleft ©