↑↓torrent.by
Поиск
Логин: Регистрация
Пароль: Восстановить пароль

Инопланетные миры / Alien Worlds [S01] (2020) WEB-DLRip 1080p | HDrezka Studio

Скачать inoplanetnye-miry-alien-worlds-s01-2020-web-dlrip-1080p-hdrezka-studio.torrent
U Магнитная ссылка Размер: 8.94 GB Раздают: 36 Качают: 19 Добавлен: 2021-02-20 04:48:44
Инопланетные миры / Alien Worlds [S01] (2020) WEB-DLRip 1080p | HDrezka Studio

Название: Инопланетные миры
Оригинальное название: Alien Worlds
Год выхода: 2020
Жанр: Документальный, фантастика
Режиссер: Сьюзи Бойлз

В ролях:
Софи Оконедо, Стюарт Армстронг, Натали Баталья, Анна Дорнхаус, Майкл Фоул, Адам Фрэнк, Фернандо Кальдерон Гутьеррес, Томас М. Илифф, Кеннда Линч, Фил Мецгер и др.

Описание сериала:
Земля – родина миллионов видов живых существ, появившихся в результате эволюции. В то же время наша планета является лишь песчинкой в огромном океане звездных систем, разбросанных по всей галактике, размеры которой позволяют вместить в себя бесчисленное множество миров, пригодных для жизни. Команда квалифицированных астрофизиков и компьютерных специалистов берет на себя ответственность представить, какая жизнь могла бы зародиться на других планетах, отличных от нашей по силе притяжения, составу атмосферы и светимости звезды.

Страна: Великобритания
Студия: Netflix, Wall to Wall Media
Продолжительность: ~0:45:00
Перевод: Профессиональный (многоголосый, закадровый) HDRezka Studio
Субтитры: Русские (Forced, Full), английские (SDH)

Файл:
Формат: MKV
Качество: WEB-DLRip (1080p)

Видео: 1920x1080 (16:9), 25,000 fps, AVC (х264), High@L4, ~7150 kbps avg, 0.138 bit/pixel
Аудио RUS: 48 kHz, AC3, 3/2 (L,C,R,l,r) + LFE ch, ~448 kbps avg
Аудио ENG: 48 kHz, E-AC3, 3/2 (L,C,R,l,r) + LFE ch, ~640 kbps avg


[+] MediaInfo
Общее
Уникальный идентификатор                 : 243289378954469939041404816719967921142 (0xB707D47B67241FB655EE3AE3E1B7A3F6)
Полное имя                               : Alien.Worlds.2020.S01E01.WEB-DLRip.1080p.NF.HDREZKA.STUDIO.mkv
Формат                                   : Matroska
Версия формата                           : Version 4
Размер файла                             : 2,34 Гбайт
Продолжительность                        : 41 м. 18 с.
Режим общего битрейта                    : Переменный
Общий поток                              : 8 099 Кбит/сек
Дата кодирования                         : UTC 2021-02-19 08:01:34
Программа кодирования                    : mkvmerge v53.0.0 ('Fool's Gold') 64-bit
Библиотека кодирования                   : libebml v1.4.1 + libmatroska v1.6.2

Видео
Идентификатор                            : 1
Формат                                   : AVC
Формат/Информация                        : Advanced Video Codec
Профиль формата                          : Main@L4
Настройки формата                        : CABAC / 3 Ref Frames
Параметр CABAC формата                   : Да
Параметр RefFrames формата               : 3 кадра
Идентификатор кодека                     : V_MPEG4/ISO/AVC
Продолжительность                        : 41 м. 18 с.
Вид битрейта                             : Переменный
Битрейт                                  : 7 150 Кбит/сек
Максимальный битрейт                     : 10,7 Мбит/сек
Ширина                                   : 1 920 пикселей
Высота                                   : 1 080 пикселей
Соотношение сторон                       : 16:9
Режим частоты кадров                     : Постоянный
Частота кадров                           : 25,000 кадров/сек
Цветовое пространство                    : YUV
Субдискретизация насыщенности            : 4:2:0
Битовая глубина                          : 8 бит
Тип развёртки                            : Прогрессивная
Бит/(Пиксели*Кадры)                      : 0.138
Размер потока                            : 2,02 Гбайт (87%)
Библиотека кодирования                   : x264 core 148 r2722 1b0121b
Настройки программы                      : cabac=1 / ref=3 / deblock=1:0:0 / analyse=0x1:0x111 / me=umh / subme=10 / psy=1 / psy_rd=1.00:0.00 / mixed_ref=1 / me_range=24 / chroma_me=1 / trellis=2 / 8x8dct=0 / cqm=0 / deadzone=21,11 / fast_pskip=1 / chroma_qp_offset=-2 / threads=6 / lookahead_threads=1 / sliced_threads=0 / nr=0 / decimate=1 / interlaced=0 / bluray_compat=0 / stitchable=1 / constrained_intra=0 / bframes=2 / b_pyramid=0 / b_adapt=2 / b_bias=0 / direct=3 / weightb=1 / open_gop=0 / weightp=2 / keyint=250 / keyint_min=25 / scenecut=0 / intra_refresh=0 / rc_lookahead=50 / rc=2pass / mbtree=1 / bitrate=7150 / ratetol=1.0 / qcomp=0.50 / qpmin=6 / qpmax=51 / qpstep=4 / cplxblur=20.0 / qblur=0.5 / vbv_maxrate=10725 / vbv_bufsize=14300 / nal_hrd=vbr / filler=0 / ip_ratio=1.40 / aq=1:1.00
Язык                                     : English
Default                                  : Да
Forced                                   : Нет

Аудио #1
Идентификатор                            : 2
Формат                                   : AC-3
Формат/Информация                        : Audio Coding 3
Коммерческое название                    : Dolby Digital
Идентификатор кодека                     : A_AC3
Продолжительность                        : 41 м. 18 с.
Вид битрейта                             : Постоянный
Битрейт                                  : 448 Кбит/сек
Каналы                                   : 6 каналов
Channel layout                           : L R C LFE Ls Rs
Частота                                  : 48,0 КГц
Частота кадров                           : 31,250 кадров/сек (1536 SPF)
Метод сжатия                             : С потерями
Размер потока                            : 132 Мбайт (6%)
Заголовок                                : HDrezka Studio
Язык                                     : Russian
Default                                  : Да
Forced                                   : Нет

Аудио #2
Идентификатор                            : 3
Формат                                   : E-AC-3
Формат/Информация                        : Enhanced AC-3
Коммерческое название                    : Dolby Digital Plus
Идентификатор кодека                     : A_EAC3
Продолжительность                        : 41 м. 18 с.
Вид битрейта                             : Постоянный
Битрейт                                  : 640 Кбит/сек
Каналы                                   : 6 каналов
Channel layout                           : L R C LFE Ls Rs
Частота                                  : 48,0 КГц
Частота кадров                           : 31,250 кадров/сек (1536 SPF)
Метод сжатия                             : С потерями
Размер потока                            : 189 Мбайт (8%)
Язык                                     : English
Default                                  : Нет
Forced                                   : Нет

Текст #1
Идентификатор                            : 4
Формат                                   : UTF-8
Идентификатор кодека                     : S_TEXT/UTF8
Идентификатор кодека/Информация          : UTF-8 Plain Text
Продолжительность                        : 32 м. 52 с.
Битрейт                                  : 3 бит/сек
Count of elements                        : 15
Размер потока                            : 913 байт (0%)
Заголовок                                : Forced
Язык                                     : Russian
Default                                  : Да
Forced                                   : Нет

Текст #2
Идентификатор                            : 5
Формат                                   : UTF-8
Идентификатор кодека                     : S_TEXT/UTF8
Идентификатор кодека/Информация          : UTF-8 Plain Text
Продолжительность                        : 40 м. 21 с.
Битрейт                                  : 84 бит/сек
Count of elements                        : 400
Размер потока                            : 25,1 Кбайт (0%)
Заголовок                                : Russian
Язык                                     : Russian
Default                                  : Нет
Forced                                   : Нет

Текст #3
Идентификатор                            : 6
Формат                                   : UTF-8
Идентификатор кодека                     : S_TEXT/UTF8
Идентификатор кодека/Информация          : UTF-8 Plain Text
Продолжительность                        : 39 м. 54 с.
Битрейт                                  : 58 бит/сек
Count of elements                        : 451
Размер потока                            : 17,0 Кбайт (0%)
Заголовок                                : English (SDH)
Язык                                     : English
Default                                  : Нет
Forced                                   : Нет



Скриншоты:
[+] Всего файлов в раздаче - 4:
Alien.Worlds.2020.S01E01.WEB-DLRip.1080p.NF.HDREZKA.STUDIO.mkv2.34 GB
Alien.Worlds.2020.S01E02.WEB-DLRip.1080p.NF.HDREZKA.STUDIO.mkv1.95 GB
Alien.Worlds.2020.S01E03.WEB-DLRip.1080p.NF.HDREZKA.STUDIO.mkv2.46 GB
Alien.Worlds.2020.S01E04.WEB-DLRip.1080p.NF.HDREZKA.STUDIO.mkv2.19 GB

Похожие раздачи по запросу - инопланетные:
2021-02-22 U Инопланетные миры / Alien Worlds [S01] (2020) WEBRip 720p 5.84 GB ↑ 25 ↓ 7
2021-01-10 U Инопланетные Миры / Alien Worlds [S01] (2020) WEBRip 1080p | LE-Production 9.97 GB ↑ 116 ↓ 94

Отзывы
Зарегистрируйтесь чтобы добавить комментарий.
Загрузите программу
  uTorrent.exe
Обратная связь
Copyleft ©