↑↓torrent.by
Поиск
Логин: Регистрация
Пароль: Восстановить пароль

Кресты (2019) WEBRip 1080p

Скачать kresty-2019-webrip-1080p.torrent
U Магнитная ссылка Размер: 3.26 GB Раздают: 335 Качают: 123 Добавлен: 2021-02-20 15:59:32
Кресты (2019) WEBRip 1080p

Название: Кресты
Год выхода: 2019
Жанр: Документальный
Режиссер: Ангелина Голикова

О фильме: Картина рассказывает об одной из старейших тюрем России, расположенной в центре Санкт-Петербурга. Революционеры, инженеры, генералы, писатели, поэты, ученые, воры, серийные убийцы – за почти 130-летнюю историю тюрьмы в ее стенах побывали тысячи людей. В «Крестах» отбывали наказание маршал Советского Союза Константин Рокоссовский, художник Казимир Малевич, поэт Иосиф Бродский, актер Георгий Жжёнов и многие другие...

Страна: Россия
Студия: «Студия Остров»
Продолжительность: 01:30:05
Перевод: Не требуется (русский)

Файл
Кодек: h.264
Качество: WEBRip 1080p
Видео: AVC, 1920x1080, ~5000 kbps, 25.00 fps
Звук: AAC, 2 ch, 192 kbps
Субтитры: Отсутствуют


[+] MediaInfo:
General
Unique ID : 283682543287485741165890940328970521938 (0xD56B453E4A673EA0623B06B665EF8D52)
Complete name : E:Kresty_2020_1080p.mkv
Format : Matroska
Format version : Version 4
File size : 3.26 GiB
Duration : 1 h 30 min
Overall bit rate mode : Variable
Overall bit rate : 5 180 kb/s
Encoded date : UTC 2021-02-19 22:03:26
Writing application : mkvmerge v53.0.0 ('Fool's Gold') 64-bit
Writing library : libebml v1.4.1 + libmatroska v1.6.2

Video
ID : 1
Format : AVC
Format/Info : Advanced Video Codec
Format profile : High@L4
Format settings : CABAC / 2 Ref Frames
Format settings, CABAC : Yes
Format settings, ReFrames : 2 frames
Codec ID : V_MPEG4/ISO/AVC
Duration : 1 h 30 min
Bit rate mode : Variable
Bit rate : 4 988 kb/s
Maximum bit rate : 8 000 kb/s
Width : 1 920 pixels
Height : 1 080 pixels
Display aspect ratio : 16:9
Frame rate mode : Constant
Frame rate : 25.000 FPS
Color space : YUV
Chroma subsampling : 4:2:0
Bit depth : 8 bits
Scan type : Progressive
Bits/(Pixel*Frame) : 0.096
Stream size : 3.14 GiB (96%)
Default : Yes
Forced : No

Audio
ID : 2
Format : AAC LC
Format/Info : Advanced Audio Codec Low Complexity
Codec ID : A_AAC-2
Duration : 1 h 30 min
Bit rate : 192 kb/s
Channel(s) : 2 channels
Channel layout : L R
Sampling rate : 48.0 kHz
Frame rate : 46.875 FPS (1024 SPF)
Compression mode : Lossy
Delay relative to video : -40 ms
Stream size : 122 MiB (4%)
Default : Yes
Forced : No



Скриншоты:
[+] Всего файлов в раздаче - 1:
Kresty_2020_1080p.mkv3.26 GB

Отзывы
Зарегистрируйтесь чтобы добавить комментарий.
Загрузите программу
  uTorrent.exe
Обратная связь
Copyleft ©