↑↓torrent.by
Поиск
Логин: Регистрация
Пароль: Восстановить пароль

Прорвёмся (2018) WEBRip 1080p

Скачать prorvemsya-2018-webrip-1080p.torrent
U Магнитная ссылка Размер: 697.15 MB Раздают: 49 Качают: 15 Добавлен: 2021-02-21 06:01:45
Прорвёмся (2018) WEBRip 1080p

Название: Прорвёмся
Год выхода: 2018
Жанр: Боевик, драма, короткометражка
Режиссер: Илья Фарфель
В ролях: Назар Сафонов, Валерия Дмитриева, Глеб Гервассиев, Галина Яковенко, Эдуард Браун, Илья Коробко, Игорь Огурцов, Игорь Скрипко, Валентина Ельшанская, Мирослав Душенко, Александр Быков, Никита Смотрич, Никита Конопей, Арман Артмамонов, Евгений Кулик

О фильме:
Брат с сестрой уверены, что вместе выберутся из любой заварушки и мечтают поскорей вырваться из своего маленького города и покорить Москву. Мечта сбывается и Москва покоряется героям. Они заводят друзей и получают возможность прикоснуться к жизни, о которой даже не мечтали. Но вычеркнуть прошлое не так-то легко. И последствия их необдуманных поступков не заставят себя ждать...

Страна: Россия
Студия: ПП Продакшн
Продолжительность: 00:14:59
Язык: Русский

Автор релиза: ylnian
Примечание: Без рекламы

Файл
Формат: MKV
Качество: WEBRip 1080p
Видео: MPEG-4 AVC, 6245 Кбит/с, 1920x1080, 25 кадр/с
Звук: АAC, 2 ch, 254 Кбит/с
Субтитры: Отсутствуют
Семпл


[+] MI
Общее
Уникальный идентификатор                 : 89157509603873985577253251821958714453 (0x43131C9BBBDAEE62BEB036B65595D455)
Полное имя                               : D:Прорвёмся.2018.WEB.1080p-ylnian.mkv
Формат                                   : Matroska
Версия формата                           : Version 4
Размер файла                             : 697 Мбайт
Продолжительность                        : 14 м. 59 с.
Общий поток                              : 6 502 Кбит/сек
Дата кодирования                         : UTC 2021-02-17 12:00:51
Программа кодирования                    : mkvmerge v53.0.0 ('Fool's Gold') 64-bit
Библиотека кодирования                   : libebml v1.4.1 + libmatroska v1.6.2

Видео
Идентификатор                            : 1
Формат                                   : AVC
Формат/Информация                        : Advanced Video Codec
Профиль формата                          : High@L4
Настройки формата                        : CABAC / 4 Ref Frames
Параметр CABAC формата                   : Да
Параметр RefFrames формата               : 4 кадра
Идентификатор кодека                     : V_MPEG4/ISO/AVC
Продолжительность                        : 14 м. 59 с.
Битрейт                                  : 6 245 Кбит/сек
Ширина                                   : 1 920 пикселей
Высота                                   : 1 080 пикселей
Соотношение сторон                       : 16:9
Режим частоты кадров                     : Постоянный
Частота кадров                           : 25,000 кадров/сек
Цветовое пространство                    : YUV
Субдискретизация насыщенности            : 4:2:0
Битовая глубина                          : 8 бит
Тип развёртки                            : Прогрессивная
Бит/(Пиксели*Кадры)                      : 0.120
Размер потока                            : 670 Мбайт (96%)
Язык                                     : Russian
Default                                  : Да
Forced                                   : Нет
Цветовой диапазон                        : Limited
Основные цвета                           : BT.709
Характеристики трансфера                 : BT.709
Коэффициенты матрицы                     : BT.709

Аудио
Идентификатор                            : 2
Формат                                   : AAC LC
Формат/Информация                        : Advanced Audio Codec Low Complexity
Идентификатор кодека                     : A_AAC-2
Продолжительность                        : 14 м. 59 с.
Битрейт                                  : 254 Кбит/сек
Каналы                                   : 2 канала
Channel layout                           : L R
Частота                                  : 48,0 КГц
Частота кадров                           : 46,875 кадров/сек (1024 SPF)
Метод сжатия                             : С потерями
Размер потока                            : 27,3 Мбайт (4%)
Язык                                     : Russian
Default                                  : Да
Forced                                   : Нет



Скриншоты:
[+] Всего файлов в раздаче - 1:
Прорвёмся.2018.WEB.1080p-ylnian.mkv697.15 MB

Отзывы
Зарегистрируйтесь чтобы добавить комментарий.
Загрузите программу
  uTorrent.exe
Обратная связь
Copyleft ©