↑↓torrent.by
Поиск
Логин: Регистрация
Пароль: Восстановить пароль

Я подарю тебе победу (2019) WEB-DLRip-AVC от MegaPeer | iTunes

Скачать ya-podaryu-tebe-pobedu-2019-web-dlrip-avc-ot-megapeer-itunes.torrent
U Магнитная ссылка Размер: 1.75 GB Раздают: 105 Качают: 25 Добавлен: 2021-02-21 15:24:29
Я подарю тебе победу (2019) WEB-DLRip-AVC от MegaPeer | iTunes

Название: Я подарю тебе победу
Год выхода: 2019
Жанр: Драма
Режиссер: Арсен Агаджанян
В ролях: Марат Башаров, Элгуджа Бурдули, Тигран Агаджанян, Кристина Мурадян, Любава Грешнова, Артур Манукян, Никита Тарасов, Сергей Гармаш, Валерий Баринов, Слобода Мичалович

О фильме:
«Я подарю тебе Победу» — такое обещание дает 17-летний фронтовик-доброволец совсем еще юной санитарке госпиталя, в которую влюбляется до беспамятства и на всю жизнь. Через много лет в результате трагического случая дневник этого добровольца попадает в руки главного героя. Он живет в мегаполисе и достиг практически всего, о чем только может мечтать современный обыватель: высокая должность, яркая и всегда ухоженная жена и прочие соответствующие статусу атрибуты. Он периодически делится формулой успеха с сотнями слушателей продвинутой бизнес-школы, мечтающих сделать похожую карьеру, счастлив служить верой и правдой своему работодателю, влеком каждым сантиметром вожделенного тела жены и восхищен собственной заботой о матери, которую обеспечил полным соцпакетом. Однако, этот однообразный и поступательный рост дает сбой, когда он начинает читать дневник и постигать совершенно иные измерения товарищества, служения Отчизне, любви и простого счастья. Теперь герой одержим этой историей, и это единственный путь к восполнению внезапно образовавшейся внутренней пустоты.

Страна: Россия
Студия: Кинокомпания "САПОК"
Продолжительность: 01:41:14
Перевод: Не требуется | iTunes

Файл
Качество: WEB-DLRip-AVC
Формат: MKV
Кодек: MPEG-4 AVC
Видео: 1024x428 (2.40:1), 24 fps, MPEG-4 AVC, 2090 Кbps avg, 0.199 bit/pixel
Аудио: AC3, 48 kHz, 6 ch, ~384.00 kbps avg | русский | iTunes
Субтитры: Отсутствуют

Релиз:


[+] Инфо-файл
x264 [info]: frame I:1127  Avg QP:13.92  size: 69579
x264 [info]: frame P:37915 Avg QP:16.82  size: 22315
x264 [info]: frame B:106744 Avg QP:17.80  size:  6205
x264 [info]: consecutive B-frames:  2.0%  4.3%  5.7% 70.8%  5.9%  9.7%  0.6%  0.7%  0.1%  0.3%
************************************************

Общее
Уникальный идентификатор                 : 25108030517178243269989687708606140948 (0x12E3A17AE9DF9C8C7CD24BC965FE1214)
Полное имя                               : Ya.Podaryu.Tebe.Pobedu.2020.WEB-DLRip.1.75Gb.х264.MegaPeer.mkv
Формат                                   : Matroska
Версия формата                           : Version 4
Размер файла                             : 1,75 Гбайт
Продолжительность                        : 1 ч. 41 м.
Общий поток                              : 2 477 Кбит/сек
Название фильма                          : Я подарю тебе победу (2019) от MegaPeer
Дата кодирования                         : UTC 2021-02-21 06:58:21
Программа кодирования                    : mkvmerge v47.0.0 ('Black Flag') 64-bit
Библиотека кодирования                   : libebml v1.3.10 + libmatroska v1.5.2
Обложка                                  : Yes
Attachments                              : cover.jpg

Видео
Идентификатор                            : 1
Формат                                   : AVC
Формат/Информация                        : Advanced Video Codec
Профиль формата                          : High@L4.1
Настройки формата                        : CABAC / 11 Ref Frames
Параметр CABAC формата                   : Да
Параметр RefFrames формата               : 11 кадров
Идентификатор кодека                     : V_MPEG4/ISO/AVC
Продолжительность                        : 1 ч. 41 м.
Битрейт                                  : 2 090 Кбит/сек
Ширина                                   : 1 024 пикселя
Высота                                   : 428 пикселей
Соотношение сторон                       : 2,40:1
Режим частоты кадров                     : Постоянный
Частота кадров                           : 24,000 кадра/сек
Цветовое пространство                    : YUV
Субдискретизация насыщенности            : 4:2:0
Битовая глубина                          : 8 бит
Тип развёртки                            : Прогрессивная
Бит/(Пиксели*Кадры)                      : 0.199
Размер потока                            : 1,48 Гбайт (84%)
Заголовок                                : stillet@MegaPeer
Библиотека кодирования                   : x264 core 161 r3018 db0d417
Настройки программы                      : cabac=1 / ref=11 / deblock=1:-2:-2 / analyse=0x3:0x113 / me=umh / subme=11 / psy=1 / psy_rd=1.00:0.00 / mixed_ref=1 / me_range=48 / chroma_me=1 / trellis=2 / 8x8dct=1 / cqm=0 / deadzone=21,11 / fast_pskip=0 / chroma_qp_offset=-2 / threads=13 / lookahead_threads=2 / sliced_threads=0 / nr=0 / decimate=0 / interlaced=0 / bluray_compat=0 / constrained_intra=0 / bframes=9 / b_pyramid=2 / b_adapt=2 / b_bias=0 / direct=3 / weightb=1 / open_gop=0 / weightp=2 / keyint=240 / keyint_min=24 / scenecut=40 / intra_refresh=0 / rc_lookahead=40 / rc=2pass / mbtree=0 / bitrate=2090 / ratetol=1.0 / qcomp=0.60 / qpmin=0 / qpmax=69 / qpstep=4 / cplxblur=20.0 / qblur=0.5 / vbv_maxrate=50000 / vbv_bufsize=62500 / nal_hrd=none / filler=0 / ip_ratio=1.40 / pb_ratio=1.30 / aq=1:1.10
Язык                                     : Russian
Default                                  : Да
Forced                                   : Нет

Аудио
Идентификатор                            : 2
Формат                                   : AC-3
Формат/Информация                        : Audio Coding 3
Коммерческое название                    : Dolby Digital
Идентификатор кодека                     : A_AC3
Продолжительность                        : 1 ч. 41 м.
Вид битрейта                             : Постоянный
Битрейт                                  : 384 Кбит/сек
Каналы                                   : 6 каналов
Channel layout                           : L R C LFE Ls Rs
Частота                                  : 48,0 КГц
Частота кадров                           : 31,250 кадров/сек (1536 SPF)
Метод сжатия                             : С потерями
Размер потока                            : 278 Мбайт (16%)
Заголовок                                : iTunes
Язык                                     : Russian
Service kind                             : Complete Main
Default                                  : Да
Forced                                   : Да

Меню
00:00:00.000                             : en:Глава 1
00:08:24.875                             : en:Глава 2
00:15:47.583                             : en:Глава 3
00:23:21.708                             : en:Глава 4
00:30:53.499                             : en:Глава 5
00:38:35.082                             : en:Глава 6
00:45:19.082                             : en:Глава 7
00:52:55.332                             : en:Глава 8
01:00:01.832                             : en:Глава 9
01:07:44.290                             : en:Глава 10
01:15:22.498                             : en:Глава 11
01:23:09.748                             : en:Глава 12
01:31:21.498                             : en:Глава 13



Скриншоты:
[+] Всего файлов в раздаче - 1:
Ya.Podaryu.Tebe.Pobedu.2020.WEB-DLRip.1.75Gb.х264.MegaPeer.mkv1.75 GB

Похожие раздачи по запросу - подарю:
2021-02-22 U Я подарю тебе победу (2019) WEB-DLRip от Files-x | iTunes 1.46 GB ↑ 52 ↓ 9
2021-02-22 U Я подарю тебе победу (2019) WEB-DLRip-AVC от Files-x | iTunes 1.46 GB ↑ 24 ↓ 9
2021-02-21 U Я подарю тебе победу (2019) WEB-DL 1080p | iTunes 3.50 GB ↑ 118 ↓ 43
2021-02-21 U Я подарю тебе победу (2019) WEB-DLRip от MegaPeer | iTunes 1.46 GB ↑ 138 ↓ 54

Отзывы
Зарегистрируйтесь чтобы добавить комментарий.
Загрузите программу
  uTorrent.exe
Обратная связь
Copyleft ©