↑↓torrent.by
Поиск
Логин: Регистрация
Пароль: Восстановить пароль

Ищу тебя [01-04 из 04] (2019) WEB-DLRip от Files-x

Скачать ischu-tebya-01-04-iz-2019-web-dlrip-ot-files-x.torrent
U Магнитная ссылка Размер: 2.75 GB Раздают: 56 Качают: 9 Добавлен: 2021-02-22 05:35:07
Ищу тебя [01-04 из 04] (2019) WEB-DLRip от Files-x

Оригинальное название: Ищу тебя
Год выхода: 2019
Жанр: Мелодрама
Режиссер: Виктор Конисевич
В ролях: Ольга Веникова, Кирилл Дыцевич, Анна Ардова, Александр Тютин, Валерия Гуляева, Владимир Захарченко, Анатолий Зиновенко, Таисия Бойко, Александр Данильченко, Леонид Гончар, Селена Жмурко, Юлия Гапчук

О фильме:
Жизнь Саши Рудаковой рушится в одночасье, когда в огне пожара, при подозрительных обстоятельствах погибают его родители. Сашу поддерживает ее жених, и ей кажется, что боль может со временем утихнуть, но жених оказывается слишком слабым и предает Сашу, чтобы не вредить своей карьере. Жизнь дает Саше новый шанс и новую любовь, впрочем, Саша уже не верит никому…

Страна: Украина
Студия: Кинокомпания "Киевтелефильм", Компания "Армада Филмз Продакшн", СВО
Продолжительность: 4 х 00:53:30
Перевод: Не требуется

Файл
Кодек: XviD
Качество: WEB-DLRip
Видео: XviD, ~ 1617 Кбит/с, 720x400, 25 кадр/с
Звук: AC3, 2 ch, 192 Кбит/с

Релиз:


[+] MediaInfo

General
Complete name                    : C:01.Ищу тебя.01.E01.(2019).WEB-DLRip.by.Nicodem.Files-x.avi
Format                           : AVI
Format/Info                      : Audio Video Interleave
File size                        : 700 MiB
Duration                         : 53mn 49s
Overall bit rate                 : 1 819 Kbps
Writing application              : VirtualDubMod 1.5.10.3 | www.virtualdub-fr.org || (build 2550/release)
Writing library                  : VirtualDubMod build 2550/release

Video
ID                               : 0
Format                           : MPEG-4 Visual
Format profile                   : Advanced Simple@L5
Format settings, BVOP            : 1
Format settings, QPel            : No
Format settings, GMC             : No warppoints
Format settings, Matrix          : Custom
Codec ID                         : XVID
Codec ID/Hint                    : XviD
Duration                         : 53mn 49s
Bit rate                         : 1 617 Kbps
Width                            : 720 pixels
Height                           : 400 pixels
Display aspect ratio             : 16:9
Frame rate                       : 25.000 fps
Color space                      : YUV
Chroma subsampling               : 4:2:0
Bit depth                        : 8 bits
Scan type                        : Progressive
Compression mode                 : Lossy
Bits/(Pixel*Frame)               : 0.225
Stream size                      : 622 MiB (89%)
Writing library                  : XviD 73

Audio
ID                               : 1
Format                           : AC-3
Format/Info                      : Audio Coding 3
Mode extension                   : CM (complete main)
Codec ID                         : 2000
Duration                         : 53mn 49s
Bit rate mode                    : Constant
Bit rate                         : 192 Kbps
Channel(s)                       : 2 channels
Channel positions                : Front: L R
Sampling rate                    : 48.0 KHz
Bit depth                        : 16 bits
Compression mode                 : Lossy
Stream size                      : 73.9 MiB (11%)
Alignment                        : Split accross interleaves
Interleave, duration             : 40 ms (1.00 video frame)
Interleave, preload duration     : 500 ms



Скриншоты:
[+] Всего файлов в раздаче - 4:
04.Ищу тебя.01.E04.(2019).WEB-DLRip.by.Nicodem.Files-x.avi695.13 MB
01.Ищу тебя.01.E01.(2019).WEB-DLRip.by.Nicodem.Files-x.avi700.05 MB
02.Ищу тебя.01.E02.(2019).WEB-DLRip.by.Nicodem.Files-x.avi710.35 MB
03.Ищу тебя.01.E03.(2019).WEB-DLRip.by.Nicodem.Files-x.avi715.23 MB

Похожие раздачи по запросу - тебя:
2020-12-28 U Все равно тебя дождусь / Все одно тебе дочекаюся [01-04 из 04] (2019) WEBRip-AVC от Files-x 2.58 GB ↑ 74 ↓ 19
2020-10-10 U Я украду тебя у всего мира (2020) WEB-DLRip от ExKinoRay 1.37 GB ↑ 193 ↓ 36
2020-09-07 U Зеркала: Инкарнация / У тебя за спиной / Behind You (2020) WEB-DL 1080p | iTunes 3.15 GB ↑ 168 ↓ 73
2017-04-15 U После тебя (2016) WEB-DLRip от MegaPeer | iTunes 1.46 GB ↑ 759 ↓ 96

Отзывы
Зарегистрируйтесь чтобы добавить комментарий.
Загрузите программу
  uTorrent.exe
Обратная связь
Copyleft ©