↑↓torrent.by
Поиск
Логин: Регистрация
Пароль: Восстановить пароль

Захват [01-08 из 08] (2019) WEB-DLRip-AVC от Generalfilm | КПК

Скачать zahvat-01-08-iz-2019-web-dlrip-avc-ot-generalfilm-kpk.torrent
U Магнитная ссылка Размер: 1.46 GB Раздают: 45 Качают: 7 Добавлен: 2021-02-22 05:35:41
Захват [01-08 из 08] (2019) WEB-DLRip-AVC от Generalfilm | КПК

Оригинальное название: Захват
Год выхода: 2019
Жанр:  Боевик
Режиссер: Хачатур Василян, Роман Веркулич
В ролях: Станислав Боклан, Георгий Поволоцкий, Никита Вакулюк, Слава Красовская, Альберт Малик, Александр Божко (II), Вадим Павленко, Владимир Скорик, Ирина Веренич-Островская

О фильме:
Сериал о самоотверженной работе отряда спецназа. Главные герои – правоохранители, для которых закон превыше всего. У членов команды есть свои жизненные драмы и личные трагедии. Они чувствуют чужую боль, как свою, и честно исполняют долг, защищая простых людей от преступников.

Страна: Украина
Студия: 07 продакшн, телеканал Интер
Продолжительность: 8 x ~ 00:41:00
Перевод: Не требуется

Файл
Формат: MP4
Качество: WEB-DLRip-AVC
Видео: MPEG-4 AVC (x264), 640x360, ~ 500 kbps, 25.000 fps
Аудио: AAC LC, 44.1 KHz, 2 ch, 128 Kbps
Субтитры: Нет

Семпл

Релиз:
[+] MI
Complete name               : F:КИНОZahvat.S01.2019.AVC.WEB-DLRip.KPK.GZahvat.s01e03.2019.AVC.WEB-DLRip.KPK.G.mp4
Format                      : MPEG-4
Codec ID                    : M4V  (isom/iso2/avc1)
File size                   : 188 MiB
Duration                    : 41 min 34 s
Overall bit rate mode       : Variable
Overall bit rate            : 634 kb/s
Writing application         : Lavf53.19.0

Video
ID                          : 1
Format                      : AVC
Format/Info                 : Advanced Video Codec
Format profile              : High@L4.1
Format settings, CABAC      : Yes
Format settings, RefFrames  : 8 frames
Codec ID                    : avc1
Codec ID/Info               : Advanced Video Coding
Duration                    : 41 min 34 s
Bit rate                    : 500 kb/s
Width                       : 640 pixels
Height                      : 360 pixels
Display aspect ratio        : 16:9
Frame rate mode             : Constant
Frame rate                  : 25.000 FPS
Color space                 : YUV
Chroma subsampling          : 4:2:0
Bit depth                   : 8 bits
Scan type                   : Progressive
Bits/(Pixel*Frame)          : 0.087
Stream size                 : 149 MiB (79%)
Writing library             : x264 core 148 r2638 7599210
Encoding settings           : cabac=1 / ref=8 / deblock=1:-1:-1 / analyse=0x3:0x133 / me=umh / subme=10 / psy=1 / psy_rd=1.00:0.00 / mixed_ref=1 / me_range=24 / chroma_me=1 / trellis=2 / 8x8dct=1 / cqm=0 / deadzone=21,11 / fast_pskip=1 / chroma_qp_offset=-2 / threads=6 / lookahead_threads=1 / sliced_threads=0 / nr=0 / decimate=1 / interlaced=0 / bluray_compat=0 / constrained_intra=0 / bframes=8 / b_pyramid=2 / b_adapt=2 / b_bias=0 / direct=3 / weightb=1 / open_gop=0 / weightp=2 / keyint=250 / keyint_min=126 / scenecut=40 / intra_refresh=0 / rc_lookahead=40 / rc=2pass / mbtree=1 / bitrate=500 / ratetol=1.0 / qcomp=0.60 / qpmin=0 / qpmax=69 / qpstep=4 / cplxblur=20.0 / qblur=0.5 / ip_ratio=1.40 / aq=1:1.00
Menus                       : 3

Audio
ID                          : 2
Format                      : AAC
Format/Info                 : Advanced Audio Codec
Format profile              : LC
Codec ID                    : 40
Duration                    : 41 min 34 s
Bit rate mode               : Variable
Bit rate                    : 128 kb/s
Channel(s)                  : 2 channels
Channel positions           : Front: L R
Sampling rate               : 44.1 kHz
Frame rate                  : 43.066 FPS (1024 SPF)
Compression mode            : Lossy
Stream size                 : 38.0 MiB (20%)
Default                     : Yes
Alternate group             : 1
Menus                       : 3



Скриншоты:
[+] Всего файлов в раздаче - 8:
Zahvat.s01e08.2019.AVC.WEB-DLRip.KPK.G.mp4177.80 MB
Zahvat.s01e01.2019.AVC.WEB-DLRip.KPK.G.mp4182.45 MB
Zahvat.s01e07.2019.AVC.WEB-DLRip.KPK.G.mp4182.86 MB
Zahvat.s01e06.2019.AVC.WEB-DLRip.KPK.G.mp4185.93 MB
Zahvat.s01e02.2019.AVC.WEB-DLRip.KPK.G.mp4186.31 MB
Zahvat.s01e03.2019.AVC.WEB-DLRip.KPK.G.mp4188.39 MB
Zahvat.s01e05.2019.AVC.WEB-DLRip.KPK.G.mp4196.14 MB
Zahvat.s01e04.2019.AVC.WEB-DLRip.KPK.G.mp4199.09 MB

Отзывы
Зарегистрируйтесь чтобы добавить комментарий.
Загрузите программу
  uTorrent.exe
Обратная связь
Copyleft ©