↑↓torrent.by
Поиск
Логин: Регистрация
Пароль: Восстановить пароль

Ад Данте: Анимированный эпос / Dante's Inferno: An Animated Epic (2010) BDRip-HEVC 1080p от HEVC-CLUB | P, А

Скачать ad-dante-animirovannyy-epos-s-inferno-an-animated-epic-2010-bdrip-hevc-1080p-ot-club-p-a.torrent
U Магнитная ссылка Размер: 4.10 GB Раздают: 32 Качают: 10 Добавлен: 2021-02-22 05:36:02
Ад Данте: Анимированный эпос / Dante's Inferno: An Animated Epic (2010) BDRip-HEVC 1080p от HEVC-CLUB | P, А

Год выхода: 2010
Страна: США, Япония, Корея Южная, Сингапур  
Студия: Starz!, Film Roman Productions  
Жанр:  мультфильм, ужасы, фэнтези
Продолжительность: 01:28:08
Перевод: Профессиональный (многоголосый закадровый), авторский (одноголосые закадровый)

b]Режиссер: Виктор Кук, Майкл Д’Иса-Хоган, Ким Сан Чжин
В ролях: Марк Хэмилл, Кевин Майкл Ричардсон, Стивен Блум, Грэй ДеЛисл, Грэм МакТавиш, Виктория Теннант, Грег Эллис, Николас Гест, Ника Футтерман, Ванесса Бренч

Описание: Dante's Inferno: An Animated Epic - это анимационный фильм-дополнение к одноименной видео-игре. Интерпретация «Божественной Комедии» Данте Алигьери, в которой главный герой Данте, проходит через 9 кругов ада, чтобы спасти свою возлюбленную.

Качество: BDRip-HEVC 1080p  
Видео: HEVC/x.265, 1920x1080, ~5252 Kbps  
Аудио 1: AAC, 2 ch, 128 Kbps - Русский, MVO (2х2)
Аудио 2: AC3, 6 ch, 640 Kbps - Русский, AVO (Nosferatu13fd)
Аудио 3: AC3, 6 ch, 640 Kbps - Английский
Субтитры: Русские, английские

Релиз:


[+] Mediainfo

x265 [info]: frame I:   1318, Avg QP:14.87  kb/s: 20475.43
x265 [info]: frame P:  31116, Avg QP:16.51  kb/s: 11813.53
x265 [info]: frame B:  94359, Avg QP:18.94  kb/s: 2874.93
x265 [info]: Weighted P-Frames: Y:4.9% UV:3.7%
x265 [info]: Weighted B-Frames: Y:4.7% UV:3.5%
x265 [info]: consecutive B-frames: 16.4% 11.2% 10.8% 34.6% 5.7% 9.5% 2.9% 6.8% 1.1% 0.8% 0.1% 0.1%

General
Unique ID                   : 146995817600542247314620827498037522959 (0x6E965D5BC6EDA9B31827A705F25A320F)
Complete name               : D:Dante's Inferno An Animated Epic (2010) BDRip-HEVC 1080p 10 bit.mkv
Format                      : Matroska
Format version              : Version 4
File size                   : 4.10 GiB
Duration                    : 1 h 28 min
Overall bit rate            : 6 663 kb/s
Movie name                  : by HANNIBAL
Encoded date                : UTC 2021-02-19 18:59:59
Writing application         : mkvmerge v47.0.0 ('Black Flag') 64-bit
Writing library             : libebml v1.3.10 + libmatroska v1.5.2
Cover                       : Yes
Attachments                 : cover.jpg

Video
ID                          : 1
Format                      : HEVC
Format/Info                 : High Efficiency Video Coding
Format profile              : Main 10@L4.1@High
Codec ID                    : V_MPEGH/ISO/HEVC
Duration                    : 1 h 28 min
Bit rate                    : 5 252 kb/s
Width                       : 1 920 pixels
Height                      : 1 080 pixels
Display aspect ratio        : 16:9
Frame rate mode             : Constant
Frame rate                  : 23.976 (23976/1000) FPS
Original frame rate         : 23.976 (24000/1001) FPS
Color space                 : YUV
Chroma subsampling          : 4:2:0
Bit depth                   : 10 bits
Bits/(Pixel*Frame)          : 0.106
Stream size                 : 3.23 GiB (79%)
Writing library             : x265 3.3+33-04275ae58030:[Windows][GCC 10.1.0][64 bit] 10bit
Encoding settings           : cpuid=1111039 / frame-threads=3 / numa-pools=12 / wpp / no-pmode / no-pme / no-psnr / no-ssim / log-level=2 / input-csp=1 / input-res=1920x1080 / interlace=0 / total-frames=126793 / level-idc=41 / high-tier=1 / uhd-bd=0 / ref=5 / no-allow-non-conformance / no-repeat-headers / annexb / no-aud / no-hrd / info / hash=0 / no-temporal-layers / open-gop / min-keyint=23 / keyint=240 / gop-lookahead=0 / bframes=11 / b-adapt=2 / b-pyramid / bframe-bias=0 / rc-lookahead=60 / lookahead-slices=0 / scenecut=40 / hist-scenecut=0 / radl=0 / no-splice / no-intra-refresh / ctu=32 / min-cu-size=8 / rect / amp / max-tu-size=32 / tu-inter-depth=3 / tu-intra-depth=3 / limit-tu=0 / rdoq-level=2 / dynamic-rd=0.00 / no-ssim-rd / signhide / no-tskip / nr-intra=0 / nr-inter=0 / no-constrained-intra / strong-intra-smoothing / max-merge=5 / limit-refs=0 / no-limit-modes / me=3 / subme=7 / merange=57 / temporal-mvp / no-frame-dup / no-hme / weightp / weightb / no-analyze-src-pics / deblock=0:0 / no-sao / no-sao-non-deblock / rd=4 / selective-sao=0 / no-early-skip / rskip / no-fast-intra / no-tskip-fast / no-cu-lossless / b-intra / no-splitrd-skip / rdpenalty=0 / psy-rd=2.00 / psy-rdoq=1.00 / no-rd-refine / no-lossless / cbqpoffs=0 / crqpoffs=0 / rc=crf / crf=19.0 / qcomp=0.70 / qpstep=4 / stats-write=0 / stats-read=0 / vbv-maxrate=50000 / vbv-bufsize=50000 / vbv-init=0.9 / crf-max=0.0 / crf-min=0.0 / ipratio=1.40 / pbratio=1.30 / aq-mode=2 / aq-strength=1.00 / no-cutree / zone-count=0 / no-strict-cbr / qg-size=32 / no-rc-grain / qpmax=69 / qpmin=0 / no-const-vbv / sar=1 / overscan=0 / videoformat=5 / range=0 / colorprim=1 / transfer=1 / colormatrix=1 / chromaloc=0 / display-window=0 / cll=0,0 / min-luma=0 / max-luma=1023 / log2-max-poc-lsb=8 / vui-timing-info / vui-hrd-info / slices=1 / no-opt-qp-pps / no-opt-ref-list-length-pps / no-multi-pass-opt-rps / scenecut-bias=0.05 / hist-threshold=0.01 / no-opt-cu-delta-qp / no-aq-motion / no-hdr10 / no-hdr10-opt / no-dhdr10-opt / no-idr-recovery-sei / analysis-reuse-level=0 / analysis-save-reuse-level=0 / analysis-load-reuse-level=0 / scale-factor=0 / refine-intra=0 / refine-inter=0 / refine-mv=1 / refine-ctu-distortion=0 / no-limit-sao / ctu-info=0 / no-lowpass-dct / refine-analysis-type=0 / copy-pic=1 / max-ausize-factor=1.0 / no-dynamic-refine / no-single-sei / no-hevc-aq / no-svt / no-field / qp-adaptation-range=1.00 / no-scenecut-aware-qpconformance-window-offsets / right=0 / bottom=0 / decoder-max-rate=0
Default                     : Yes
Forced                      : No
Color range                 : Limited
Color primaries             : BT.709
Transfer characteristics    : BT.709
Matrix coefficients         : BT.709

Audio #1
ID                          : 2
Format                      : AAC LC
Format/Info                 : Advanced Audio Codec Low Complexity
Codec ID                    : A_AAC-2
Duration                    : 1 h 28 min
Bit rate                    : 128 kb/s
Channel(s)                  : 2 channels
Channel layout              : L R
Sampling rate               : 44.1 kHz
Frame rate                  : 43.066 FPS (1024 SPF)
Compression mode            : Lossy
Stream size                 : 80.7 MiB (2%)
Title                       : MVO 2х2
Language                    : Russian
Default                     : Yes
Forced                      : No

Audio #2
ID                          : 3
Format                      : AC-3
Format/Info                 : Audio Coding 3
Commercial name             : Dolby Digital
Codec ID                    : A_AC3
Duration                    : 1 h 28 min
Bit rate mode               : Constant
Bit rate                    : 640 kb/s
Channel(s)                  : 6 channels
Channel layout              : L R C LFE Ls Rs
Sampling rate               : 48.0 kHz
Frame rate                  : 31.250 FPS (1536 SPF)
Compression mode            : Lossy
Stream size                 : 403 MiB (10%)
Title                       : VO Nosferatu13fd
Language                    : Russian
Service kind                : Complete Main
Default                     : No
Forced                      : No

Audio #3
ID                          : 4
Format                      : AC-3
Format/Info                 : Audio Coding 3
Commercial name             : Dolby Digital
Codec ID                    : A_AC3
Duration                    : 1 h 28 min
Bit rate mode               : Constant
Bit rate                    : 640 kb/s
Channel(s)                  : 6 channels
Channel layout              : L R C LFE Ls Rs
Sampling rate               : 48.0 kHz
Frame rate                  : 31.250 FPS (1536 SPF)
Compression mode            : Lossy
Stream size                 : 403 MiB (10%)
Language                    : English
Service kind                : Complete Main
Default                     : No
Forced                      : No

Text #1
ID                          : 5
Format                      : UTF-8
Codec ID                    : S_TEXT/UTF8
Codec ID/Info               : UTF-8 Plain Text
Duration                    : 1 h 19 min
Bit rate                    : 85 b/s
Count of elements           : 923
Stream size                 : 49.8 KiB (0%)
Language                    : Russian
Default                     : No
Forced                      : No

Text #2
ID                          : 6
Format                      : UTF-8
Codec ID                    : S_TEXT/UTF8
Codec ID/Info               : UTF-8 Plain Text
Duration                    : 1 h 19 min
Bit rate                    : 51 b/s
Count of elements           : 926
Stream size                 : 30.2 KiB (0%)
Language                    : English
Default                     : No
Forced                      : No

Menu
00:00:00.000                : en:
00:09:30.194                : en:
00:17:45.314                : en:
00:25:24.481                : en:
00:31:16.040                : en:
00:36:25.850                : en:
00:42:43.561                : en:
00:45:27.724                : en:
00:50:00.956                : en:
00:58:24.626                : en:
01:08:36.612                : en:
01:20:25.278                : en:



Скриншоты:
[+] Всего файлов в раздаче - 1:

Отзывы
Зарегистрируйтесь чтобы добавить комментарий.
Загрузите программу
  uTorrent.exe
Обратная связь
Copyleft ©