↑↓torrent.by
Поиск
Логин: Регистрация
Пароль: Восстановить пароль

Учитель (2018) WEB-DLRip-AVC от Files-x

Скачать uchitel-2018-web-dlrip-avc-ot-files-x.torrent
U Магнитная ссылка Размер: 188.82 MB Раздают: 31 Качают: 5 Добавлен: 2021-02-22 05:36:07
Учитель (2018) WEB-DLRip-AVC от Files-x

Оригинальное название: Учитель
Год выпуска: 2018
Жанр:  Драма
Режиссер: Максим Елагин
В ролях: Владимир Марков, Григорий Чабан, Максим Деричев, Рикардо Марин, Александр Патаки

О фильме: Пожилой учитель литературы одиноко живет в своей квартире. Читает книги, слушает новости культуры. Каждый день он созванивается с другом из далекого города, вспоминает юность и не особо интересуется современным миром. Но однажды современный мир сам врывается к нему в дом, полностью переворачивая его жизнь.

Страна: Россия
Студия: Кинокомпания "SAVALAN FILM"
Продолжительность: 00:14:46
Перевод: Не требуется

Файл
Кодек: h.264
Качество: WEB-DLRip-AVC
Видео: MPEG-4 AVC, ~ 1600 Кбит/с, 1024x576, 25 кадр/с
Аудио: AC3, 2 ch, 192 Кбит/с
Язык: Русский
Cубтитры: Нет

Релиз:
[+] MediaInfo

General
Unique ID                                : 251300897823680949265738186242715149497 (0xBD0ECADBD7363A179E8AC02854C1E4B9)
Complete name                            : F:Учитель.(2019).WEB-DLRip.(AVC).by.Серый1779.Files-x.mkv
Format                                   : Matroska
Format version                           : Version 2
File size                                : 189 MiB
Duration                                 : 14 min 46 s
Overall bit rate                         : 1 787 kb/s
Encoded date                             : UTC 2021-02-19 16:13:58
Writing application                      : mkvmerge v7.8.0 ('River Man') 32bit built on Apr  3 2015 12:11:22
Writing library                          : libebml v1.3.1 + libmatroska v1.4.2

Video
ID                                       : 1
Format                                   : AVC
Format/Info                              : Advanced Video Codec
Format profile                           : High@L4.1
Format settings                          : CABAC / 9 Ref Frames
Format settings, CABAC                   : Yes
Format settings, RefFrames               : 9 frames
Codec ID                                 : V_MPEG4/ISO/AVC
Duration                                 : 14 min 46 s
Bit rate                                 : 1 600 kb/s
Width                                    : 1 024 pixels
Height                                   : 576 pixels
Display aspect ratio                     : 16:9
Frame rate mode                          : Constant
Frame rate                               : 25.000 FPS
Color space                              : YUV
Chroma subsampling                       : 4:2:0
Bit depth                                : 8 bits
Scan type                                : Progressive
Bits/(Pixel*Frame)                       : 0.109
Stream size                              : 165 MiB (87%)
Writing library                          : x264 core 146 r2538 121396c
Encoding settings                        : cabac=1 / ref=9 / deblock=1:-2:-1 / analyse=0x3:0x133 / me=umh / subme=9 / psy=1 / psy_rd=1.00:0.15 / mixed_ref=1 / me_range=32 / chroma_me=1 / trellis=2 / 8x8dct=1 / cqm=0 / deadzone=21,11 / fast_pskip=0 / chroma_qp_offset=-3 / threads=18 / lookahead_threads=3 / sliced_threads=0 / nr=0 / decimate=1 / interlaced=0 / bluray_compat=0 / constrained_intra=0 / bframes=9 / b_pyramid=2 / b_adapt=2 / b_bias=0 / direct=1 / weightb=1 / open_gop=0 / weightp=2 / keyint=250 / keyint_min=25 / scenecut=40 / intra_refresh=0 / rc=2pass / mbtree=0 / bitrate=1600 / ratetol=1.0 / qcomp=0.60 / qpmin=0 / qpmax=69 / qpstep=4 / cplxblur=20.0 / qblur=0.5 / ip_ratio=1.40 / pb_ratio=1.30 / aq=2:1.00
Default                                  : Yes
Forced                                   : No
Color range                              : Limited
Color primaries                          : BT.709
Transfer characteristics                 : BT.709
Matrix coefficients                      : BT.709

Audio
ID                                       : 2
Format                                   : AC-3
Format/Info                              : Audio Coding 3
Format settings, Endianness              : Big
Codec ID                                 : A_AC3
Duration                                 : 14 min 46 s
Bit rate mode                            : Constant
Bit rate                                 : 192 kb/s
Channel(s)                               : 2 channels
Channel positions                        : Front: L R
Sampling rate                            : 48.0 kHz
Frame rate                               : 31.250 FPS (1536 SPF)
Bit depth                                : 16 bits
Compression mode                         : Lossy
Stream size                              : 20.3 MiB (11%)
Service kind                             : Complete Main
Default                                  : Yes
Forced                                   : No




Скриншоты:
[+] Всего файлов в раздаче - 1:
Учитель.(2019).WEB-DLRip.(AVC).by.Серый1779.Files-x.mkv188.82 MB

Отзывы
Зарегистрируйтесь чтобы добавить комментарий.
Загрузите программу
  uTorrent.exe
Обратная связь
Copyleft ©