↑↓torrent.by
Поиск
Логин: Регистрация
Пароль: Восстановить пароль

Бирюк [01-04 из 04] (2014) WEBRip 1080p

Скачать biryuk-01-04-iz-2014-webrip-1080p.torrent
U Магнитная ссылка Размер: 7.54 GB Раздают: 33 Качают: 8 Добавлен: 2021-02-22 05:36:14
Бирюк [01-04 из 04] (2014) WEBRip 1080p

Информация о сериале
Название: Бирюк
Год выхода: 2014
Жанр: Драма, криминал
Режиссер: Игорь Драка
В ролях: Игорь Черневич, Алексей Нилов, Алиса Золоткова, Борис Бедросов, Денис Старков, Артем Алексеев, Виталий Куклин, Вера Тран, Надежда Дмитриева, Олег Дроздов

О сериале: Олег Бирюков по кличке «Бирюк» — бывший опер убойного отдела, майор в отставке. Десять лет назад он ушел из милиции, так как при задержании преступника погибла заложница, и Бирюк посчитал себя виновным в ее смерти. Однажды Олег получил страшную весть от своей первой жены Юли: был убит их сын Максим. С супругой они разошлись больше 20 лет назад, когда мальчику было восемь. Сейчас у Бирюка другая семья, но Максим так и остался его единственным родным ребенком. Он пошел по стопам отца и стал полицейским. В день гибели у Максима был выходной, который он решил провести с женой Катей и сынишкой Мишей. Прогуливаясь по городу, они стали свидетелями разбойного налета на инкассаторов. Безоружный Максим вступил в схватку с бандитами. На глазах Кати главарь банды — Серый — безжалостно добил тяжелораненого Максима, а бандиты с добычей скрылись с места преступления. Катя обратилась к Бирюку с просьбой найти бандитов. Она не готова ждать, когда их найдет полиция, ведь никакой суд ее не устроит. Катя хочет своими глазами увидеть смерть убийцы мужа. Все для себя решил и Бирюк: он возьмет в руки оружие и отомстит за сына…

Страна: Россия
Студия: «Триикс Медиа»
Продолжительность: ~00:44:00 серия
Перевод: Не требуется (русский)

Файл
Кодек: h.264
Качество: WEBRip 1080p
Видео: AVC/H.264, 1920x1080, ~6000 Kbps
Звук: AAC, 2 ch, 192 Kbps
Субтитры: Отсутствуют


[+] MediaInfo:

General
Unique ID: 143311008401552071681837878671751662860 (0x6BD0B23D0D73F02B7AA396320A064D0C)
Complete name: Biruk_S01_2014_1080p_01.mkv
Format: Matroska
Format version: Version 4
File size: 1.88 GiB
Duration: 44 min 4 s
Overall bit rate: 6 187 kb/s
Encoded date: UTC 2021-02-21 01:34:11
Writing application: mkvmerge v53.0.0 ('Fool's Gold') 64-bit
Writing library: libebml v1.4.1 + libmatroska v1.6.2

Video
ID: 1
Format: AVC
Format/Info: Advanced Video Codec
Format profile: High@L4.1
Format settings: 2 Ref Frames
Format settings, CABAC: No
Format settings, ReFrames: 2 frames
Codec ID: V_MPEG4/ISO/AVC
Duration: 44 min 4 s
Bit rate mode: Constant
Bit rate: 6 000 kb/s
Width: 1 920 pixels
Height: 1 080 pixels
Display aspect ratio: 16:9
Frame rate mode: Constant
Frame rate: 25.000 FPS
Standard: PAL
Color space: YUV
Chroma subsampling: 4:2:0
Bit depth: 8 bits
Scan type: Progressive
Bits/(Pixel*Frame): 0.116
Stream size: 1.84 GiB (98%)
Language: English
Default: Yes
Forced: No
Color range: Limited
Color primaries: BT.709
Transfer characteristics: BT.709
Matrix coefficients: BT.709

Audio
ID: 2
Format: AAC LC
Format/Info: Advanced Audio Codec Low Complexity
Codec ID: A_AAC-2
Duration: 44 min 3 s
Bit rate: 192 kb/s
Channel(s): 2 channels
Channel layout: L R
Sampling rate: 48.0 kHz
Frame rate: 46.875 FPS (1024 SPF)
Compression mode: Lossy
Delay relative to video: -40 ms
Stream size: 39.5 MiB (2%)
Language: English
Default: Yes
Forced: No



Скриншоты:
[+] Всего файлов в раздаче - 4:
Biruk_S01_2014_1080p_01.mkv1.88 GB
Biruk_S01_2014_1080p_02.mkv1.89 GB
Biruk_S01_2014_1080p_03.mkv1.89 GB
Biruk_S01_2014_1080p_04.mkv1.89 GB

Отзывы
Зарегистрируйтесь чтобы добавить комментарий.
Загрузите программу
  uTorrent.exe
Обратная связь
Copyleft ©