↑↓torrent.by
Поиск
Логин: Регистрация
Пароль: Восстановить пароль

Счастливо оставаться / Adieu les cons (2020) WEB-DLRip-AVC | iTunes

Скачать schastlivo-ostavatsya-adieu-les-cons-2020-web-dlrip-avc-itunes.torrent
U Магнитная ссылка Размер: 743.68 MB Раздают: 26 Качают: 7 Добавлен: 2021-02-22 05:36:43
Счастливо оставаться / Adieu les cons (2020) WEB-DLRip-AVC | iTunes

Название: Счастливо оставаться
Оригинальное название: Adieu les cons
Год выхода: 2020
Жанр:  Драма, комедия
Режиссер: Альбер Дюпонтель
В ролях: Виржини Эфира, Альбер Дюпонтель, Николя Марье, Жакки Берруайе, Филипп Юшан, Бастьен Угетто, Марилу Оссийу, Мишель Вюйермоз, Лоран Стокер, Киан Кожанди

О фильме:
Сюзи узнает, что смертельно больна. Времени осталось мало, и теперь наконец можно сделать то, что она давно хотела. Вместе с Джей Би, находящимся в состоянии полного выгорания и отсутствия интереса к жизни, и мистером Блином, наоборот, ослепленным энтузиазмом, они отправятся в длинное и увлекательное путешествие. Их ждет незабываемый и захватывающий квест, который будет невозможно забыть.

Выпущено: Франция / Manchester Films
Продолжительность: 01:27:08
Озвучивание: Дублированное | iTunes
Субтитры: Нет

Файл
Формат: Matroska
Качество: WEB-DLRip-AVC
Видео: 720x302 at 24.000 fps, x264@L4.1, ~1098 kbps, 0.210 bpp
Аудио: AAC, 2 ch, ~96 kbps - | Русский | -

***Релиз от: -=DoMiNo=-


[+] M/I
x264 [info]: frame I:1374  Avg QP:12.87  size: 39712
x264 [info]: frame P:31147 Avg QP:16.11  size: 11461
x264 [info]: frame B:92952 Avg QP:18.27  size:  3282

General
Format                      : Matroska
Format version              : Version 4
File size                   : 744 MiB
Duration                    : 1 h 27 min
Overall bit rate            : 1 193 kb/s
Movie name                  : Счастливо оставаться.(2020).WEB-DLRip-AVC.[-=DoMiNo=-]
Encoded date                : UTC 2021-02-21 21:28:17
Writing application         : mkvmerge v53.0.0 ('Fool's Gold') 64-bit
Writing library             : libebml v1.4.1 + libmatroska v1.6.2
Cover                       : Yes
Attachments                 : Cover.jpg / Cover 2.jpg

Video
ID                          : 1
Format                      : AVC
Format/Info                 : Advanced Video Codec
Format profile              : High@L4.1
Format settings             : CABAC / 12 Ref Frames
Format settings, CABAC      : Yes
Format settings, Reference  : 12 frames
Codec ID                    : V_MPEG4/ISO/AVC
Duration                    : 1 h 27 min
Bit rate                    : 1 098 kb/s
Width                       : 720 pixels
Height                      : 302 pixels
Display aspect ratio        : 2.40:1
Frame rate mode             : Constant
Frame rate                  : 24.000 FPS
Color space                 : YUV
Chroma subsampling          : 4:2:0
Bit depth                   : 8 bits
Scan type                   : Progressive
Bits/(Pixel*Frame)          : 0.210
Stream size                 : 683 MiB (92%)
Title                       : -=DoMiNo=-
Writing library             : x264 core 161 r3048 b86ae3c
Encoding settings           : cabac=1 / ref=12 / deblock=1:-2:-1 / analyse=0x3:0x133 / me=umh / subme=10 / psy=1 / psy_rd=1.00:0.00 / mixed_ref=1 / me_range=32 / chroma_me=1 / trellis=2 / 8x8dct=1 / cqm=0 / deadzone=21,11 / fast_pskip=0 / chroma_qp_offset=-2 / threads=6 / lookahead_threads=1 / sliced_threads=0 / nr=0 / decimate=0 / interlaced=0 / bluray_compat=0 / constrained_intra=0 / bframes=10 / b_pyramid=2 / b_adapt=2 / b_bias=0 / direct=3 / weightb=1 / open_gop=0 / weightp=2 / keyint=250 / keyint_min=24 / scenecut=40 / intra_refresh=0 / rc_lookahead=60 / rc=2pass / mbtree=0 / bitrate=1098 / ratetol=1.0 / qcomp=0.60 / qpmin=0 / qpmax=69 / qpstep=4 / cplxblur=20.0 / qblur=0.5 / vbv_maxrate=50000 / vbv_bufsize=62500 / nal_hrd=none / filler=0 / ip_ratio=1.40 / pb_ratio=1.30 / aq=2:0.90
Language                    : English
Default                     : Yes
Forced                      : No
Color range                 : Limited
Color primaries             : BT.709
Transfer characteristics    : BT.709
Matrix coefficients         : BT.709

Audio
ID                          : 2
Format                      : AAC LC SBR
Format/Info                 : Advanced Audio Codec Low Complexity with Spectral Band Replication
Commercial name             : HE-AAC
Format settings             : Explicit
Codec ID                    : A_AAC-2
Duration                    : 1 h 27 min
Bit rate                    : 96.0 kb/s
Channel(s)                  : 2 channels
Channel layout              : L R
Sampling rate               : 48.0 kHz
Frame rate                  : 23.438 FPS (2048 SPF)
Compression mode            : Lossy
Stream size                 : 59.0 MiB (8%)
Title                       : DUB
Language                    : Russian
Default                     : Yes
Forced                      : Yes

Menu
00:00:00.000                : :Глава 1
00:08:34.957                : :Глава 2
00:16:36.041                : :Глава 3
00:25:14.124                : :Глава 4
00:33:51.374                : :Глава 5
00:42:17.999                : :Глава 6
00:50:30.957                : :Глава 7
00:59:24.915                : :Глава 8
01:07:37.290                : :Глава 9
01:15:44.915                : :Глава 10



Скриншоты:
[+] Всего файлов в раздаче - 1:
Счастливо оставаться.(2020).WEB-DLRip-AVC.[-=DoMiNo=-].mkv743.68 MB

Похожие раздачи по запросу - счастливо:
2021-02-22 U Счастливо оставаться / Adieu les cons (2020) WEB-DL 720p от ELEKTRI4KA | iTunes 2.69 GB ↑ 85 ↓ 21
2021-02-22 U Счастливо оставаться / Adieu les cons (2020) WEB-DLRip от ELEKTRI4KA | iTunes 1.37 GB ↑ 62 ↓ 16
2021-02-22 U Счастливо оставаться / Adieu les cons (2020) WEB-DL 1080p от ELEKTRI4KA | iTunes 2.99 GB ↑ 101 ↓ 33

Отзывы
Зарегистрируйтесь чтобы добавить комментарий.
Загрузите программу
  uTorrent.exe
Обратная связь
Copyleft ©