↑↓torrent.by
Поиск
Логин: Регистрация
Пароль: Восстановить пароль

Инопланетные миры / Alien Worlds [S01] (2020) WEBRip 720p

Скачать inoplanetnye-miry-alien-worlds-s01-2020-webrip-720p.torrent
U Магнитная ссылка Размер: 5.84 GB Раздают: 28 Качают: 8 Добавлен: 2021-02-22 05:36:48
Инопланетные миры / Alien Worlds [S01] (2020) WEBRip 720p

Название: Инопланетные миры
Оригинальное название: Alien Worlds
Год выхода: 2020
Жанр: Документальный, фантастика
Режиссер: Сьюзи Бойлз
В ролях: Софи Оконедо, Стюарт Армстронг, Натали Баталья, Анна Дорнхаус, Майкл Фоул, Адам Фрэнк, Фернандо Кальдерон Гутьеррес, Томас М. Илифф, Кеннда Линч, Фил Мецгер и др.

О фильме: Земля – родина миллионов видов живых существ, появившихся в результате эволюции. В то же время наша планета является лишь песчинкой в огромном океане звездных систем, разбросанных по всей галактике, размеры которой позволяют вместить в себя бесчисленное множество миров, пригодных для жизни. Команда квалифицированных астрофизиков и компьютерных специалистов берет на себя ответственность представить, какая жизнь могла бы зародиться на других планетах, отличных от нашей по силе притяжения, составу атмосферы и светимости звезды.

Страна: Великобритания
Студия: Netflix, Wall to Wall Media
Продолжительность: 4x ~00:44:00
Перевод-1: Профессиональный (двухголосый закадровый) HDRezka
Перевод-2: Любительский (одноголосый закадровый) LE-Production

Файл
Кодек: H.264
Качество: WebRip-720p
Видео: AVC, 1280x544 (2.35:1), 25 fps, ~4000 kbps
Звук-1: AC3, 48 kHz, 6 ch, 448 kbps (HDRezka)
Звук-2: AC3, 48 kHz, 6 ch, 448 kbps (LE-Production)

Семпл

Релиз:
[+] Медиаинфо
Формат                                   : Matroska
Версия формата                           : Version 4
Размер файла                             : 1,37 Гбайт
Продолжительность                        : 39 м. 57 с.
Общий поток                              : 4 899 Кбит/сек
Дата кодирования                         : UTC 2021-02-20 08:36:54
Программа кодирования                    : mkvmerge v52.0.0 ('Secret For The Mad') 64-bit
Библиотека кодирования                   : libebml v1.4.1 + libmatroska v1.6.2
Обложка                                  : Yes
Attachments                              : cover.jpg

Видео
Идентификатор                            : 1
Формат                                   : AVC
Формат/Информация                        : Advanced Video Codec
Профиль формата                          : High@L4
Настройки формата                        : CABAC / 12 Ref Frames
Параметр CABAC формата                   : Да
Параметр RefFrames формата               : 12 кадров
Идентификатор кодека                     : V_MPEG4/ISO/AVC
Продолжительность                        : 39 м. 57 с.
Битрейт                                  : 4 000 Кбит/сек
Ширина                                   : 1 280 пикселей
Высота                                   : 544 пикселя
Соотношение сторон                       : 2,35:1
Режим частоты кадров                     : Постоянный
Частота кадров                           : 25,000 кадров/сек
Цветовое пространство                    : YUV
Субдискретизация насыщенности            : 4:2:0
Битовая глубина                          : 8 бит
Тип развёртки                            : Прогрессивная
Бит/(Пиксели*Кадры)                      : 0.230
Размер потока                            : 1,12 Гбайт (82%)
Библиотека кодирования                   : x264 core 161 r3027 4121277
Настройки программы                      : cabac=1 / ref=12 / deblock=1:-2:-2 / analyse=0x3:0x133 / me=umh / subme=9 / psy=1 / psy_rd=1.00:0.00 / mixed_ref=1 / me_range=32 / chroma_me=1 / trellis=2 / 8x8dct=1 / cqm=0 / deadzone=21,11 / fast_pskip=0 / chroma_qp_offset=-2 / threads=17 / lookahead_threads=4 / sliced_threads=0 / nr=0 / decimate=1 / interlaced=0 / bluray_compat=0 / constrained_intra=0 / bframes=16 / b_pyramid=2 / b_adapt=2 / b_bias=0 / direct=3 / weightb=1 / open_gop=0 / weightp=2 / keyint=250 / keyint_min=25 / scenecut=40 / intra_refresh=0 / rc_lookahead=250 / rc=2pass / mbtree=1 / bitrate=4000 / ratetol=1.0 / qcomp=0.60 / qpmin=0 / qpmax=69 / qpstep=4 / cplxblur=20.0 / qblur=0.5 / vbv_maxrate=25000 / vbv_bufsize=31250 / nal_hrd=none / filler=0 / ip_ratio=1.40 / aq=1:1.00
Default                                  : Да
Forced                                   : Нет

Аудио #1
Идентификатор                            : 2
Формат                                   : AC-3
Формат/Информация                        : Audio Coding 3
Коммерческое название                    : Dolby Digital
Идентификатор кодека                     : A_AC3
Продолжительность                        : 39 м. 57 с.
Вид битрейта                             : Постоянный
Битрейт                                  : 448 Кбит/сек
Каналы                                   : 6 каналов
Channel layout                           : L R C LFE Ls Rs
Частота                                  : 48,0 КГц
Частота кадров                           : 31,250 кадров/сек (1536 SPF)
Метод сжатия                             : С потерями
Размер потока                            : 128 Мбайт (9%)
Заголовок                                : HDRezka
Язык                                     : Russian
Service kind                             : Complete Main
Default                                  : Да
Forced                                   : Нет

Аудио #2
Идентификатор                            : 3
Формат                                   : AC-3
Формат/Информация                        : Audio Coding 3
Коммерческое название                    : Dolby Digital
Идентификатор кодека                     : A_AC3
Продолжительность                        : 39 м. 57 с.
Вид битрейта                             : Постоянный
Битрейт                                  : 448 Кбит/сек
Каналы                                   : 6 каналов
Channel layout                           : L R C LFE Ls Rs
Частота                                  : 48,0 КГц
Частота кадров                           : 31,250 кадров/сек (1536 SPF)
Метод сжатия                             : С потерями
Размер потока                            : 128 Мбайт (9%)
Заголовок                                : LE-Production
Язык                                     : Russian
Service kind                             : Complete Main
Default                                  : Нет
Forced                                   : Нет

Общее
Уникальный идентификатор                 : 170493003387273531233964705608537267300 (0x8043C20FC6625781AFEA2FB00E94DC64)
Полное имя                               : D:ХранилищеВидеоИнопланетные мирыInoplanetnye Miry.WebRip.1.2.mkv
Формат                                   : Matroska
Версия формата                           : Version 4
Размер файла                             : 1,52 Гбайт
Продолжительность                        : 44 м. 19 с.
Общий поток                              : 4 899 Кбит/сек
Дата кодирования                         : UTC 2021-02-20 08:39:11
Программа кодирования                    : mkvmerge v52.0.0 ('Secret For The Mad') 64-bit
Библиотека кодирования                   : libebml v1.4.1 + libmatroska v1.6.2
Обложка                                  : Yes
Attachments                              : cover.jpg

Видео
Идентификатор                            : 1
Формат                                   : AVC
Формат/Информация                        : Advanced Video Codec
Профиль формата                          : High@L4
Настройки формата                        : CABAC / 12 Ref Frames
Параметр CABAC формата                   : Да
Параметр RefFrames формата               : 12 кадров
Идентификатор кодека                     : V_MPEG4/ISO/AVC
Продолжительность                        : 44 м. 19 с.
Битрейт                                  : 4 000 Кбит/сек
Ширина                                   : 1 280 пикселей
Высота                                   : 544 пикселя
Соотношение сторон                       : 2,35:1
Режим частоты кадров                     : Постоянный
Частота кадров                           : 25,000 кадров/сек
Цветовое пространство                    : YUV
Субдискретизация насыщенности            : 4:2:0
Битовая глубина                          : 8 бит
Тип развёртки                            : Прогрессивная
Бит/(Пиксели*Кадры)                      : 0.230
Размер потока                            : 1,24 Гбайт (82%)
Библиотека кодирования                   : x264 core 161 r3027 4121277
Настройки программы                      : cabac=1 / ref=12 / deblock=1:-2:-2 / analyse=0x3:0x133 / me=umh / subme=9 / psy=1 / psy_rd=1.00:0.00 / mixed_ref=1 / me_range=32 / chroma_me=1 / trellis=2 / 8x8dct=1 / cqm=0 / deadzone=21,11 / fast_pskip=0 / chroma_qp_offset=-2 / threads=17 / lookahead_threads=4 / sliced_threads=0 / nr=0 / decimate=1 / interlaced=0 / bluray_compat=0 / constrained_intra=0 / bframes=16 / b_pyramid=2 / b_adapt=2 / b_bias=0 / direct=3 / weightb=1 / open_gop=0 / weightp=2 / keyint=250 / keyint_min=25 / scenecut=40 / intra_refresh=0 / rc_lookahead=250 / rc=2pass / mbtree=1 / bitrate=4000 / ratetol=1.0 / qcomp=0.60 / qpmin=0 / qpmax=69 / qpstep=4 / cplxblur=20.0 / qblur=0.5 / vbv_maxrate=25000 / vbv_bufsize=31250 / nal_hrd=none / filler=0 / ip_ratio=1.40 / aq=1:1.00
Default                                  : Да
Forced                                   : Нет

Аудио #1
Идентификатор                            : 2
Формат                                   : AC-3
Формат/Информация                        : Audio Coding 3
Коммерческое название                    : Dolby Digital
Идентификатор кодека                     : A_AC3
Продолжительность                        : 44 м. 19 с.
Вид битрейта                             : Постоянный
Битрейт                                  : 448 Кбит/сек
Каналы                                   : 6 каналов
Channel layout                           : L R C LFE Ls Rs
Частота                                  : 48,0 КГц
Частота кадров                           : 31,250 кадров/сек (1536 SPF)
Метод сжатия                             : С потерями
Размер потока                            : 142 Мбайт (9%)
Заголовок                                : HDRezka
Язык                                     : Russian
Service kind                             : Complete Main
Default                                  : Да
Forced                                   : Нет

Аудио #2
Идентификатор                            : 3
Формат                                   : AC-3
Формат/Информация                        : Audio Coding 3
Коммерческое название                    : Dolby Digital
Идентификатор кодека                     : A_AC3
Продолжительность                        : 44 м. 19 с.
Вид битрейта                             : Постоянный
Битрейт                                  : 448 Кбит/сек
Каналы                                   : 6 каналов
Channel layout                           : L R C LFE Ls Rs
Частота                                  : 48,0 КГц
Частота кадров                           : 31,250 кадров/сек (1536 SPF)
Метод сжатия                             : С потерями
Размер потока                            : 142 Мбайт (9%)
Заголовок                                : LE-Production
Язык                                     : Russian
Service kind                             : Complete Main
Default                                  : Нет
Forced                                   : Нет

Общее
Уникальный идентификатор                 : 190001614407736201083209965862620755540 (0x8EF0FAD88FEF663E0C7BB4353983F654)
Полное имя                               : D:ХранилищеВидеоИнопланетные мирыInoplanetnye Miry.WebRip.1.3.mkv
Формат                                   : Matroska
Версия формата                           : Version 4
Размер файла                             : 1,38 Гбайт
Продолжительность                        : 40 м. 17 с.
Общий поток                              : 4 896 Кбит/сек
Дата кодирования                         : UTC 2021-02-20 08:41:14
Программа кодирования                    : mkvmerge v52.0.0 ('Secret For The Mad') 64-bit
Библиотека кодирования                   : libebml v1.4.1 + libmatroska v1.6.2
Обложка                                  : Yes
Attachments                              : cover.jpg

Видео
Идентификатор                            : 1
Формат                                   : AVC
Формат/Информация                        : Advanced Video Codec
Профиль формата                          : High@L4
Настройки формата                        : CABAC / 12 Ref Frames
Параметр CABAC формата                   : Да
Параметр RefFrames формата               : 12 кадров
Идентификатор кодека                     : V_MPEG4/ISO/AVC
Продолжительность                        : 40 м. 17 с.
Битрейт                                  : 4 000 Кбит/сек
Ширина                                   : 1 280 пикселей
Высота                                   : 544 пикселя
Соотношение сторон                       : 2,35:1
Режим частоты кадров                     : Постоянный
Частота кадров                           : 25,000 кадров/сек
Цветовое пространство                    : YUV
Субдискретизация насыщенности            : 4:2:0
Битовая глубина                          : 8 бит
Тип развёртки                            : Прогрессивная
Бит/(Пиксели*Кадры)                      : 0.230
Размер потока                            : 1,13 Гбайт (82%)
Библиотека кодирования                   : x264 core 161 r3027 4121277
Настройки программы                      : cabac=1 / ref=12 / deblock=1:-2:-2 / analyse=0x3:0x133 / me=umh / subme=9 / psy=1 / psy_rd=1.00:0.00 / mixed_ref=1 / me_range=32 / chroma_me=1 / trellis=2 / 8x8dct=1 / cqm=0 / deadzone=21,11 / fast_pskip=0 / chroma_qp_offset=-2 / threads=17 / lookahead_threads=4 / sliced_threads=0 / nr=0 / decimate=1 / interlaced=0 / bluray_compat=0 / constrained_intra=0 / bframes=16 / b_pyramid=2 / b_adapt=2 / b_bias=0 / direct=3 / weightb=1 / open_gop=0 / weightp=2 / keyint=250 / keyint_min=25 / scenecut=40 / intra_refresh=0 / rc_lookahead=250 / rc=2pass / mbtree=1 / bitrate=4000 / ratetol=1.0 / qcomp=0.60 / qpmin=0 / qpmax=69 / qpstep=4 / cplxblur=20.0 / qblur=0.5 / vbv_maxrate=25000 / vbv_bufsize=31250 / nal_hrd=none / filler=0 / ip_ratio=1.40 / aq=1:1.00
Default                                  : Да
Forced                                   : Нет

Аудио #1
Идентификатор                            : 2
Формат                                   : AC-3
Формат/Информация                        : Audio Coding 3
Коммерческое название                    : Dolby Digital
Идентификатор кодека                     : A_AC3
Продолжительность                        : 40 м. 17 с.
Вид битрейта                             : Постоянный
Битрейт                                  : 448 Кбит/сек
Каналы                                   : 6 каналов
Channel layout                           : L R C LFE Ls Rs
Частота                                  : 48,0 КГц
Частота кадров                           : 31,250 кадров/сек (1536 SPF)
Метод сжатия                             : С потерями
Размер потока                            : 129 Мбайт (9%)
Заголовок                                : HDRezka
Язык                                     : Russian
Service kind                             : Complete Main
Default                                  : Да
Forced                                   : Нет

Аудио #2
Идентификатор                            : 3
Формат                                   : AC-3
Формат/Информация                        : Audio Coding 3
Коммерческое название                    : Dolby Digital
Идентификатор кодека                     : A_AC3
Продолжительность                        : 40 м. 17 с.
Вид битрейта                             : Постоянный
Битрейт                                  : 448 Кбит/сек
Каналы                                   : 6 каналов
Channel layout                           : L R C LFE Ls Rs
Частота                                  : 48,0 КГц
Частота кадров                           : 31,250 кадров/сек (1536 SPF)
Метод сжатия                             : С потерями
Размер потока                            : 129 Мбайт (9%)
Заголовок                                : LE-Production
Язык                                     : Russian
Service kind                             : Complete Main
Default                                  : Нет
Forced                                   : Нет

Общее
Уникальный идентификатор                 : 185238190584762374094893168777222650779 (0x8B5B93EB4C96396CB2EFD149F94B7B9B)
Полное имя                               : D:ХранилищеВидеоИнопланетные мирыInoplanetnye Miry.WebRip.1.4.mkv
Формат                                   : Matroska
Версия формата                           : Version 4
Размер файла                             : 1,58 Гбайт
Продолжительность                        : 46 м. 5 с.
Общий поток                              : 4 899 Кбит/сек
Дата кодирования                         : UTC 2021-02-20 08:43:05
Программа кодирования                    : mkvmerge v52.0.0 ('Secret For The Mad') 64-bit
Библиотека кодирования                   : libebml v1.4.1 + libmatroska v1.6.2
Обложка                                  : Yes
Attachments                              : cover.jpg

Видео
Идентификатор                            : 1
Формат                                   : AVC
Формат/Информация                        : Advanced Video Codec
Профиль формата                          : High@L4
Настройки формата                        : CABAC / 12 Ref Frames
Параметр CABAC формата                   : Да
Параметр RefFrames формата               : 12 кадров
Идентификатор кодека                     : V_MPEG4/ISO/AVC
Продолжительность                        : 46 м. 5 с.
Битрейт                                  : 4 000 Кбит/сек
Ширина                                   : 1 280 пикселей
Высота                                   : 544 пикселя
Соотношение сторон                       : 2,35:1
Режим частоты кадров                     : Постоянный
Частота кадров                           : 25,000 кадров/сек
Цветовое пространство                    : YUV
Субдискретизация насыщенности            : 4:2:0
Битовая глубина                          : 8 бит
Тип развёртки                            : Прогрессивная
Бит/(Пиксели*Кадры)                      : 0.230
Размер потока                            : 1,29 Гбайт (82%)
Библиотека кодирования                   : x264 core 161 r3027 4121277
Настройки программы                      : cabac=1 / ref=12 / deblock=1:-2:-2 / analyse=0x3:0x133 / me=umh / subme=9 / psy=1 / psy_rd=1.00:0.00 / mixed_ref=1 / me_range=32 / chroma_me=1 / trellis=2 / 8x8dct=1 / cqm=0 / deadzone=21,11 / fast_pskip=0 / chroma_qp_offset=-2 / threads=17 / lookahead_threads=4 / sliced_threads=0 / nr=0 / decimate=1 / interlaced=0 / bluray_compat=0 / constrained_intra=0 / bframes=16 / b_pyramid=2 / b_adapt=2 / b_bias=0 / direct=3 / weightb=1 / open_gop=0 / weightp=2 / keyint=250 / keyint_min=25 / scenecut=40 / intra_refresh=0 / rc_lookahead=250 / rc=2pass / mbtree=1 / bitrate=4000 / ratetol=1.0 / qcomp=0.60 / qpmin=0 / qpmax=69 / qpstep=4 / cplxblur=20.0 / qblur=0.5 / vbv_maxrate=25000 / vbv_bufsize=31250 / nal_hrd=none / filler=0 / ip_ratio=1.40 / aq=1:1.00
Default                                  : Да
Forced                                   : Нет

Аудио #1
Идентификатор                            : 2
Формат                                   : AC-3
Формат/Информация                        : Audio Coding 3
Коммерческое название                    : Dolby Digital
Идентификатор кодека                     : A_AC3
Продолжительность                        : 46 м. 5 с.
Вид битрейта                             : Постоянный
Битрейт                                  : 448 Кбит/сек
Каналы                                   : 6 каналов
Channel layout                           : L R C LFE Ls Rs
Частота                                  : 48,0 КГц
Частота кадров                           : 31,250 кадров/сек (1536 SPF)
Метод сжатия                             : С потерями
Размер потока                            : 148 Мбайт (9%)
Заголовок                                : HDRezka
Язык                                     : Russian
Service kind                             : Complete Main
Default                                  : Да
Forced                                   : Нет

Аудио #2
Идентификатор                            : 3
Формат                                   : AC-3
Формат/Информация                        : Audio Coding 3
Коммерческое название                    : Dolby Digital
Идентификатор кодека                     : A_AC3
Продолжительность                        : 46 м. 5 с.
Вид битрейта                             : Постоянный
Битрейт                                  : 448 Кбит/сек
Каналы                                   : 6 каналов
Channel layout                           : L R C LFE Ls Rs
Частота                                  : 48,0 КГц
Частота кадров                           : 31,250 кадров/сек (1536 SPF)
Метод сжатия                             : С потерями
Размер потока                            : 148 Мбайт (9%)
Заголовок                                : LE-Production
Язык                                     : Russian
Service kind                             : Complete Main
Default                                  : Нет
Forced                                   : Нет



Скриншоты:
[+] Всего файлов в раздаче - 4:
Inoplanetnye.Miry.WebRip.1.1.mkv1.37 GB
Inoplanetnye.Miry.WebRip.1.2.mkv1.52 GB
Inoplanetnye.Miry.WebRip.1.3.mkv1.38 GB
Inoplanetnye.Miry.WebRip.1.4.mkv1.58 GB

Похожие раздачи по запросу - инопланетные:
2021-02-20 U Инопланетные миры / Alien Worlds [S01] (2020) WEB-DLRip 1080p | HDrezka Studio 8.94 GB ↑ 40 ↓ 21

Отзывы
Зарегистрируйтесь чтобы добавить комментарий.
Загрузите программу
  uTorrent.exe
Обратная связь
Copyleft ©