↑↓torrent.by
Поиск
Логин: Регистрация
Пароль: Восстановить пароль

Королевский гамбит / Critical Thinking (2020) WEB-DLRip-AVC от MediaBit | iTunes

Скачать korolevskiy-gambit-critical-thinking-2020-web-dlrip-avc-ot-mediabit-itunes.torrent
U Магнитная ссылка Размер: 1.45 GB Раздают: 24 Качают: 7 Добавлен: 2021-02-22 05:37:07
Королевский гамбит / Critical Thinking (2020) WEB-DLRip-AVC от MediaBit | iTunes

Королевский гамбит / Critical Thinking

Название:  Королевский гамбит
Оригинальное название:  Critical Thinking
Год выхода: 2020
Жанр: Драма
Режиссер:  Джон Легуизамо
В ролях:   Джон Легуизамо, Рэйчел Бэй Джонс, Майкл Кеннет Уильямс, Коруин С. Тагглс, Хорхе Лендеборг мл., Энджел Куриэль, Джеффри Батиста, Уилл Хохман, Зора Касебере, Рамсес Хименес

Описание:   Марио «Мистер Ти» Мартинез ведет факультатив шахмат для подростков из неблагополучных семей. От остальных учителей его отличает легкий стиль общения, эмпатия и высокий интеллект. На улицах города творится беспредел, подростки здесь постоянно попадают в неприятности, и многие берутся за самые рискованные дела, чтобы выжить. Какие тут могут быть шахматы? Но Мартинез искренне верит в своих учеников. Смогут ли ребята из гетто играть на равных с игроками национального турнира по шахматам?

Страна:  США
Студия:  Cinema Veritas, Critical thinking, Hialeah Park Studios, NRSP, Perfect Balance
Продолжительность:  01:50:40
Перевод:  Профессиональный (полное дублирование) - iTunes

Информация о файле:
Кодек: AVC
Формат: MKV
Качество: WEB-DLRip-AVC
Видео: MPEG-4 AVC, 1024x428, 24.000 fps, 1492 kbps  
Аудио RU:  AC3, 6 ch, 48 kHz, 384 kbps  
Субтитры: Отсутсвуют
Навигация по главам:  Да

Релиз: &  

Автор релиза:


[+] MediaInfo
x264 info: frame I:1345  Avg QP:15.33  size: 51033 [url=/tag/1/][/url]
x264 info: frame P:40603 Avg QP:18.67  size: 16716 [url=/tag/1/][/url]
x264 info: frame B:117422 Avg QP:21.33  size:  4152 [url=/tag/1/][/url]
x264 info: consecutive B-frames:  2.2%  4.9%  7.3% 56.1% 11.3% 15.2%  1.7%  0.9%  0.1%  0.1%  0.1% [url=/tag/1/][/url]
******************************** [url=/tag/1/][/url]
[url=/tag/1/][/url]
General [url=/tag/1/][/url]
Unique ID                                : 115881131702067185803951788202741031075 (0x572DE4E73D8E025DE2E8E185E11560A3) [url=/tag/1/][/url]
Complete name                            : D:uTorrentРипы_от_wolf1245_MediaBitCritical Thinking.2020.DUB.iTunes.WEB-DLRip-AVC_wolf1245_MediaBit.mkv [url=/tag/1/][/url]
Format                                   : Matroska [url=/tag/1/][/url]
Format version                           : Version 4 [url=/tag/1/][/url]
File size                                : 1.45 GiB [url=/tag/1/][/url]
Duration                                 : 1 h 50 min [url=/tag/1/][/url]
Overall bit rate                         : 1 876 kb/s [url=/tag/1/][/url]
Movie name                               : Critical Thinking.2020.DUB.iTunes.WEB-DLRip-AVC_wolf1245_MediaBit [url=/tag/1/][/url]
Encoded date                             : UTC 2021-02-21 14:08:53 [url=/tag/1/][/url]
Writing application                      : mkvmerge v53.0.0 ('Fool's Gold') 64-bit [url=/tag/1/][/url]
Writing library                          : libebml v1.4.1 + libmatroska v1.6.2 [url=/tag/1/][/url]
[url=/tag/1/][/url]
Video [url=/tag/1/][/url]
ID                                       : 1 [url=/tag/1/][/url]
Format                                   : AVC [url=/tag/1/][/url]
Format/Info                              : Advanced Video Codec [url=/tag/1/][/url]
Format profile                           : High@L4.1 [url=/tag/1/][/url]
Format settings                          : CABAC / 12 Ref Frames [url=/tag/1/][/url]
Format settings, CABAC                   : Yes [url=/tag/1/][/url]
Format settings, Reference frames        : 12 frames [url=/tag/1/][/url]
Codec ID                                 : V_MPEG4/ISO/AVC [url=/tag/1/][/url]
Duration                                 : 1 h 50 min [url=/tag/1/][/url]
Bit rate                                 : 1 492 kb/s [url=/tag/1/][/url]
Width                                    : 1 024 pixels [url=/tag/1/][/url]
Height                                   : 428 pixels [url=/tag/1/][/url]
Display aspect ratio                     : 2.40:1 [url=/tag/1/][/url]
Frame rate mode                          : Constant [url=/tag/1/][/url]
Frame rate                               : 24.000 FPS [url=/tag/1/][/url]
Color space                              : YUV [url=/tag/1/][/url]
Chroma subsampling                       : 4:2:0 [url=/tag/1/][/url]
Bit depth                                : 8 bits [url=/tag/1/][/url]
Scan type                                : Progressive [url=/tag/1/][/url]
Bits/(Pixel*Frame)                       : 0.142 [url=/tag/1/][/url]
Stream size                              : 1.15 GiB (79%) [url=/tag/1/][/url]
Title                                    : _wolf1245_MediaBit [url=/tag/1/][/url]
Writing library                          : x264 core 157 r2958 57baac4 [url=/tag/1/][/url]
Encoding settings                        : cabac=1 / ref=12 / deblock=1:-3:-3 / analyse=0x3:0x133 / me=umh / subme=10 / psy=1 / psy_rd=1.05:0.03 / mixed_ref=1 / me_range=32 / chroma_me=1 / trellis=2 / 8x8dct=1 / cqm=0 / deadzone=21,11 / fast_pskip=1 / chroma_qp_offset=-3 / threads=10 / lookahead_threads=2 / sliced_threads=0 / nr=0 / decimate=1 / interlaced=0 / bluray_compat=0 / constrained_intra=0 / bframes=10 / b_pyramid=2 / b_adapt=2 / b_bias=0 / direct=3 / weightb=1 / open_gop=0 / weightp=2 / keyint=240 / keyint_min=24 / scenecut=40 / intra_refresh=0 / rc_lookahead=60 / rc=2pass / mbtree=1 / bitrate=1492 / ratetol=1.0 / qcomp=0.60 / qpmin=0 / qpmax=69 / qpstep=4 / cplxblur=20.0 / qblur=0.5 / vbv_maxrate=50000 / vbv_bufsize=62500 / nal_hrd=none / filler=0 / ip_ratio=1.40 / aq=1:0.80 [url=/tag/1/][/url]
Language                                 : English [url=/tag/1/][/url]
Default                                  : Yes [url=/tag/1/][/url]
Forced                                   : No [url=/tag/1/][/url]
Color range                              : Limited [url=/tag/1/][/url]
Color primaries                          : BT.709 [url=/tag/1/][/url]
Transfer characteristics                 : BT.709 [url=/tag/1/][/url]
Matrix coefficients                      : BT.709 [url=/tag/1/][/url]
[url=/tag/1/][/url]
Audio [url=/tag/1/][/url]
ID                                       : 2 [url=/tag/1/][/url]
Format                                   : AC-3 [url=/tag/1/][/url]
Format/Info                              : Audio Coding 3 [url=/tag/1/][/url]
Commercial name                          : Dolby Digital [url=/tag/1/][/url]
Codec ID                                 : A_AC3 [url=/tag/1/][/url]
Duration                                 : 1 h 50 min [url=/tag/1/][/url]
Bit rate mode                            : Constant [url=/tag/1/][/url]
Bit rate                                 : 384 kb/s [url=/tag/1/][/url]
Channel(s)                               : 6 channels [url=/tag/1/][/url]
Channel layout                           : L R C LFE Ls Rs [url=/tag/1/][/url]
Sampling rate                            : 48.0 kHz [url=/tag/1/][/url]
Frame rate                               : 31.250 FPS (1536 SPF) [url=/tag/1/][/url]
Compression mode                         : Lossy [url=/tag/1/][/url]
Stream size                              : 304 MiB (20%) [url=/tag/1/][/url]
Title                                    : DUB | iTunes [url=/tag/1/][/url]
Language                                 : Russian [url=/tag/1/][/url]
Service kind                             : Complete Main [url=/tag/1/][/url]
Default                                  : Yes [url=/tag/1/][/url]
Forced                                   : No [url=/tag/1/][/url]
[url=/tag/1/][/url]
Menu [url=/tag/1/][/url]
00:00:00.000                             : :Глава 1 [url=/tag/1/][/url]
00:02:46.541                             : :Глава 2 [url=/tag/1/][/url]
00:11:53.582                             : :Глава 3 [url=/tag/1/][/url]
00:17:56.832                             : :Глава 4 [url=/tag/1/][/url]
00:21:30.457                             : :Глава 5 [url=/tag/1/][/url]
00:31:33.165                             : :Глава 6 [url=/tag/1/][/url]
00:39:25.706                             : :Глава 7 [url=/tag/1/][/url]
00:45:33.289                             : :Глава 8 [url=/tag/1/][/url]
00:51:50.580                             : :Глава 9 [url=/tag/1/][/url]
00:56:56.663                             : :Глава 10 [url=/tag/1/][/url]
01:01:57.621                             : :Глава 11 [url=/tag/1/][/url]
01:07:32.746                             : :Глава 12 [url=/tag/1/][/url]
01:13:18.246                             : :Глава 13 [url=/tag/1/][/url]
01:20:40.621                             : :Глава 14 [url=/tag/1/][/url]
01:28:03.996                             : :Глава 15 [url=/tag/1/][/url]
01:32:00.079                             : :Глава 16 [url=/tag/1/][/url]
01:41:00.329                             : :Глава 16 [url=/tag/1/][/url]
[url=/tag/1/][/url]



Скриншоты:
[+] Всего файлов в раздаче - 1:
Critical Thinking.2020.DUB.iTunes.WEB-DLRip-AVC_wolf1245_MediaBit.mkv1.45 GB

Похожие раздачи по запросу - королевский:
2021-02-21 U Королевский гамбит / Critical Thinking (2020) WEB-DLRip от MegaPeer | iTunes 1.46 GB ↑ 209 ↓ 42
2021-02-21 U Королевский гамбит / Critical Thinking (2020) WEB-DL 1080p от селезень | iTunes 3.84 GB ↑ 68 ↓ 36

Отзывы
Зарегистрируйтесь чтобы добавить комментарий.
Загрузите программу
  uTorrent.exe
Обратная связь
Copyleft ©