↑↓torrent.by
Поиск
Логин: Регистрация
Пароль: Восстановить пароль

Птица в клетке. Заражение / Songbird (2020) WEBRip 720p | iTunes

Скачать ptica-v-kletke-zarazhenie-songbird-2020-webrip-720p-itunes.torrent
U Магнитная ссылка Размер: 2.47 GB Раздают: 149 Качают: 120 Добавлен: 2021-02-22 16:48:08
Птица в клетке. Заражение / Songbird (2020) WEBRip 720p | iTunes

Название: Птица в клетке. Заражение
Оригинальное название: Songbird
Год выхода: 2020
Жанр: Триллер, драма, мелодрама, комедия
Режиссер: Адам Мэйсон
В ролях: Кей Джей Апа, София Карсон, Крэйг Робинсон, Брэдли Уитфорд, Петер Стормаре, Эльпидия Каррильо, Александра Даддарио, Лия МакХью, Пол Уолтер Хаузер, Деми Мур

О фильме:
В 2024 году мир все еще находится во власти опасного вируса. Зараженных силой забирают из домов и отправляют в зловещие карантинные лагеря.У курьера Нико редкий иммунитет к болезни, и он свободно передвигается по городу. Когда его девушка Сара заражается, Нико понимает, что за ней уже выехали военные и у него есть считанные часы, чтобы спасти возлюбленную.

Страна: США
Студия: STX Films, Invisible Narratives, Platinum Dunes
Продолжительность: 01:24:50
Перевод: Дублированный | iTunes

Файл
Кодек: x.264
Качество: WEBRip 720p | AMZN
Видео: MPEG-4 AVC, 3138 Kбит/с, 1280x528, 23.976 кадр/с
Аудио #1: Русский (АС3, 6 ch, 384 Кбит/с, 48.0 KHz) Профессиональный (дублированный) iTunes
Аудио #2: Английский (АС3, 6 ch, 640 Кбит/с, 48.0 KHz)
Субтитры: Русские (Forced), украинские (Full), английские (SDH)
* Без Рекламы!
Трейлер




[+] MediaInfo
Источник: Songbird.2020.1080p.AMZN.WEB-DL.DDP5.1.x264-NOGRP
General
Unique ID                      : 227834218021954301550728554151125907515 (0xAB67463781843768B7539D8BD676F83B)
Complete name                  : Songbird.2020.AMZN.x264.WEBRip.720p.mkv
Format                         : Matroska
Format version                 : Version 4
File size                      : 2.47 GiB
Duration                       : 1 h 24 min
Overall bit rate               : 4 164 kb/s
Encoded date                   : UTC 2021-02-22 09:03:08
Writing application            : mkvmerge v7.1.0 ('Good Love') 64bit built on Jul 27 2014 13:06:55
Writing library                : libebml v1.3.0 + libmatroska v1.4.1

Video
ID                             : 1
Format                         : AVC
Format/Info                    : Advanced Video Codec
Format profile                 : High@L4.1
Format settings                : CABAC / 4 Ref Frames
Format settings, CABAC         : Yes
Format settings, Reference fra : 4 frames
Codec ID                       : V_MPEG4/ISO/AVC
Duration                       : 1 h 24 min
Bit rate                       : 3 138 kb/s
Width                          : 1 280 pixels
Height                         : 528 pixels
Display aspect ratio           : 2.40:1
Frame rate mode                : Constant
Frame rate                     : 23.976 (24000/1001) FPS
Color space                    : YUV
Chroma subsampling             : 4:2:0
Bit depth                      : 8 bits
Scan type                      : Progressive
Bits/(Pixel*Frame)             : 0.194
Stream size                    : 1.86 GiB (75%)
Writing library                : x264 core 161 r3018 db0d417
Encoding settings              : cabac=1 / ref=3 / deblock=1:0:0 / analyse=0x3:0x113 / me=hex / subme=7 / psy=1 / psy_rd=1.00:0.00 / mixed_ref=1 / me_range=16 / chroma_me=1 / trellis=1 / 8x8dct=1 / cqm=0 / deadzone=21,11 / fast_pskip=1 / chroma_qp_offset=-2 / threads=12 / lookahead_threads=2 / sliced_threads=0 / nr=0 / decimate=1 / interlaced=0 / bluray_compat=0 / constrained_intra=0 / bframes=3 / b_pyramid=2 / b_adapt=1 / b_bias=0 / direct=1 / weightb=1 / open_gop=0 / weightp=2 / keyint=240 / keyint_min=23 / scenecut=40 / intra_refresh=0 / rc_lookahead=40 / rc=crf / mbtree=1 / crf=18.0 / qcomp=0.60 / qpmin=0 / qpmax=69 / qpstep=4 / vbv_maxrate=62500 / vbv_bufsize=78125 / crf_max=0.0 / nal_hrd=none / filler=0 / ip_ratio=1.40 / aq=1:1.00
Language                       : English
Default                        : Yes
Forced                         : No

Audio #1
ID                             : 2
Format                         : AC-3
Format/Info                    : Audio Coding 3
Commercial name                : Dolby Digital
Codec ID                       : A_AC3
Duration                       : 1 h 24 min
Bit rate mode                  : Constant
Bit rate                       : 384 kb/s
Channel(s)                     : 6 channels
Channel layout                 : L R C LFE Ls Rs
Sampling rate                  : 48.0 kHz
Frame rate                     : 31.250 FPS (1536 SPF)
Compression mode               : Lossy
Stream size                    : 233 MiB (9%)
Title                          : DUB | iTunes
Language                       : Russian
Service kind                   : Complete Main
Default                        : Yes
Forced                         : No

Audio #2
ID                             : 3
Format                         : AC-3
Format/Info                    : Audio Coding 3
Commercial name                : Dolby Digital
Codec ID                       : A_AC3
Duration                       : 1 h 24 min
Bit rate mode                  : Constant
Bit rate                       : 640 kb/s
Channel(s)                     : 6 channels
Channel layout                 : L R C LFE Ls Rs
Sampling rate                  : 48.0 kHz
Frame rate                     : 31.250 FPS (1536 SPF)
Compression mode               : Lossy
Stream size                    : 388 MiB (15%)
Language                       : English
Service kind                   : Complete Main
Default                        : No
Forced                         : No

Text #1
ID                             : 4
Format                         : UTF-8
Codec ID                       : S_TEXT/UTF8
Codec ID/Info                  : UTF-8 Plain Text
Duration                       : 1 h 18 min
Bit rate                       : 5 b/s
Count of elements              : 57
Stream size                    : 3.20 KiB (0%)
Title                          : Forced
Language                       : Russian
Default                        : Yes
Forced                         : No

Text #2
ID                             : 5
Format                         : UTF-8
Codec ID                       : S_TEXT/UTF8
Codec ID/Info                  : UTF-8 Plain Text
Duration                       : 1 h 21 min
Bit rate                       : 94 b/s
Count of elements              : 1022
Stream size                    : 56.4 KiB (0%)
Language                       : Ukrainian
Default                        : No
Forced                         : No

Text #3
ID                             : 6
Format                         : UTF-8
Codec ID                       : S_TEXT/UTF8
Codec ID/Info                  : UTF-8 Plain Text
Duration                       : 1 h 24 min
Bit rate                       : 64 b/s
Count of elements              : 1254
Stream size                    : 40.0 KiB (0%)
Title                          : SDH
Language                       : English
Default                        : No
Forced                         : No



Скриншоты:
[+] Всего файлов в раздаче - 1:
Songbird.2020.AMZN.x264.WEBRip.720p.mkv2.47 GB

Похожие раздачи по запросу - птица:
2021-02-22 U Птица в клетке. Заражение / Songbird (2020) WEB-DLRip-AVC | iTunes 725.98 MB ↑ 51 ↓ 24
2021-02-22 U Птица в клетке. Заражение / Songbird (2020) WEB-DLRip | iTunes 746.37 MB ↑ 68 ↓ 12
2021-02-22 U Птица в клетке. Заражение / Songbird (2020) WEB-DL-HEVC 2160p | 4K | HDR | iTunes 1К9.53 GB ↑ 102 ↓ 99
2021-02-22 U Птица в клетке. Заражение / Songbird (2020) WEB-DL 1080p от ELEKTRI4KA | iTunes 6.03 GB ↑ 114 ↓ 69
2021-02-22 U Птица в клетке. Заражение / Songbird (2020) WEB-DLRip от ELEKTRI4KA | iTunes 1.37 GB ↑ 129 ↓ 53

Отзывы
Зарегистрируйтесь чтобы добавить комментарий.
Загрузите программу
  uTorrent.exe
Обратная связь
Copyleft ©