↑↓torrent.by
Поиск
Логин: Регистрация
Пароль: Восстановить пароль

Птица в клетке. Заражение / Songbird (2020) WEB-DL-HEVC 2160p | 4K | HDR | iTunes

Скачать ptica-v-kletke-zarazhenie-songbird-2020-web-dl-hevc-2160p-4k-hdr-itunes.torrent
U Магнитная ссылка Размер: 9.53 GB Раздают: 102 Качают: 100 Добавлен: 2021-02-22 16:48:11
Птица в клетке. Заражение / Songbird (2020) WEB-DL-HEVC 2160p | 4K | HDR | iTunes

Название: Птица в клетке. Заражение
Оригинальное название: Songbird
Год выхода: 2020
Жанр: Триллер, драма, мелодрама

Режиссер: Адам Мэйсон

В ролях: Кей Джей Апа, София Карсон, Крэйг Робинсон, Брэдли Уитфорд, Петер Стормаре, Эльпидия Каррильо, Александра Даддарио, Лия МакХью, Пол Уолтер Хаузер, Деми Мур

О фильме:
В 2024 году мир все еще находится во власти опасного вируса. Зараженных силой забирают из домов и отправляют в зловещие карантинные лагеря.У курьера Нико редкий иммунитет к болезни, и он свободно передвигается по городу. Когда его девушка Сара заражается, Нико понимает, что за ней уже выехали военные и у него есть считанные часы, чтобы спасти возлюбленную.

Страна: США
Продолжительность: 01:24:56
Перевод:  Профессиональный дублированный | iTunes

Файл
Кодек: H.265
Качество: WEB-DL-HEVC 2160p
Видео: MPEG-H HEVC HDR Video, 3840x2160 (16:9), 23.976 fps, 15.0 Mb/s, 10 bit
Аудио 1: AC3, 48.0 kHz, 6 ch, 384 kb/s | RUS
Аудио 2: E-AC3, 48.0 kHz, 6 ch, 640 kb/s | ENG
Субтитры: Русские (Forced), украинские (Full), английские (SDH)

Семпл


[+] MI
General
Unique ID                                : 244662445875569289235097212144158117226 (0xB81045E86E8B6253A4F0A4DE24D20D6A)
Complete name                            : Songbird.2020.AMZN.HDR.WEB-DL.2160p.mkv
Format                                   : Matroska
Format version                           : Version 4
File size                                : 9.53 GiB
Duration                                 : 1 h 24 min
Overall bit rate                         : 16.1 Mb/s
Encoded date                             : UTC 2021-02-22 09:35:12
Writing application                      : mkvmerge v8.3.0 ('Over the Horizon') 64bit
Writing library                          : libebml v1.3.1 + libmatroska v1.4.2

Video
ID                                       : 1
Format                                   : HEVC
Format/Info                              : High Efficiency Video Coding
Format profile                           : Main 10@L5@Main
Codec ID                                 : V_MPEGH/ISO/HEVC
Duration                                 : 1 h 24 min
Bit rate                                 : 15.0 Mb/s
Width                                    : 3 840 pixels
Height                                   : 2 160 pixels
Display aspect ratio                     : 16:9
Frame rate mode                          : Constant
Frame rate                               : 23.976 (24000/1001) FPS
Color space                              : YUV
Chroma subsampling                       : 4:2:0 (Type 2)
Bit depth                                : 10 bits
Bits/(Pixel*Frame)                       : 0.076
Stream size                              : 8.92 GiB (94%)
Default                                  : Yes
Forced                                   : No
Color range                              : Limited
Color primaries                          : BT.2020
Transfer characteristics                 : PQ
Matrix coefficients                      : BT.2020 non-constant
Maximum Content Light Level              : 486 cd/m2
Maximum Frame-Average Light Level        : 389 cd/m2

Audio #1
ID                                       : 2
Format                                   : AC-3
Format/Info                              : Audio Coding 3
Commercial name                          : Dolby Digital
Codec ID                                 : A_AC3
Duration                                 : 1 h 24 min
Bit rate mode                            : Constant
Bit rate                                 : 384 kb/s
Channel(s)                               : 6 channels
Channel layout                           : L R C LFE Ls Rs
Sampling rate                            : 48.0 kHz
Frame rate                               : 31.250 FPS (1536 SPF)
Bit depth                                : 16 bits
Compression mode                         : Lossy
Stream size                              : 233 MiB (2%)
Title                                    : DUB (iTunes)
Language                                 : Russian
Service kind                             : Complete Main
Default                                  : Yes
Forced                                   : No

Audio #2
ID                                       : 3
Format                                   : E-AC-3
Format/Info                              : Enhanced AC-3
Commercial name                          : Dolby Digital Plus
Codec ID                                 : A_EAC3
Duration                                 : 1 h 24 min
Bit rate mode                            : Constant
Bit rate                                 : 640 kb/s
Channel(s)                               : 6 channels
Channel layout                           : L R C LFE Ls Rs
Sampling rate                            : 48.0 kHz
Frame rate                               : 31.250 FPS (1536 SPF)
Compression mode                         : Lossy
Stream size                              : 389 MiB (4%)
Title                                    : Original
Language                                 : English
Service kind                             : Complete Main
Default                                  : No
Forced                                   : No

Text #1
ID                                       : 4
Format                                   : UTF-8
Codec ID                                 : S_TEXT/UTF8
Codec ID/Info                            : UTF-8 Plain Text
Duration                                 : 1 h 18 min
Bit rate                                 : 5 b/s
Count of elements                        : 57
Stream size                              : 3.20 KiB (0%)
Title                                    : Forced
Language                                 : Russian
Default                                  : Yes
Forced                                   : No

Text #2
ID                                       : 5
Format                                   : UTF-8
Codec ID                                 : S_TEXT/UTF8
Codec ID/Info                            : UTF-8 Plain Text
Duration                                 : 1 h 21 min
Bit rate                                 : 94 b/s
Count of elements                        : 1022
Stream size                              : 56.4 KiB (0%)
Title                                    : Full
Language                                 : Ukrainian
Default                                  : No
Forced                                   : No

Text #3
ID                                       : 6
Format                                   : UTF-8
Codec ID                                 : S_TEXT/UTF8
Codec ID/Info                            : UTF-8 Plain Text
Duration                                 : 1 h 24 min
Bit rate                                 : 64 b/s
Count of elements                        : 1254
Stream size                              : 40.0 KiB (0%)
Title                                    : SDH
Language                                 : English
Default                                  : No
Forced                                   : No



Скриншоты:
[+] Всего файлов в раздаче - 1:
Songbird.2020.AMZN.HDR.WEB-DL.2160p.mkv9.53 GB

Похожие раздачи по запросу - птица:
2021-02-22 U Птица в клетке. Заражение / Songbird (2020) WEB-DLRip-AVC | iTunes 725.98 MB ↑ 57 ↓ 25
2021-02-22 U Птица в клетке. Заражение / Songbird (2020) WEB-DLRip | iTunes 746.37 MB ↑ 77 ↓ 12
2021-02-22 U Птица в клетке. Заражение / Songbird (2020) WEBRip 720p | iTunes 2.47 GB ↑ 164 ↓ 121
2021-02-22 U Птица в клетке. Заражение / Songbird (2020) WEB-DL 1080p от ELEKTRI4KA | iTunes 6.03 GB ↑ 114 ↓ 70
2021-02-22 U Птица в клетке. Заражение / Songbird (2020) WEB-DLRip от ELEKTRI4KA | iTunes 1.37 GB ↑ 140 ↓ 54

Отзывы
mchs.ru
КАК КИНО?

Зарегистрируйтесь чтобы добавить комментарий.
Загрузите программу
  uTorrent.exe
Обратная связь
Copyleft ©