↑↓torrent.by
Поиск
Логин: Регистрация
Пароль: Восстановить пароль

Счастливо оставаться / Adieu les cons (2020) WEB-DL 720p от ELEKTRI4KA | iTunes

Скачать schastlivo-ostavatsya-adieu-les-cons-2020-web-dl-720p-ot-elektri4ka-itunes.torrent
U Магнитная ссылка Размер: 2.69 GB Раздают: 85 Качают: 21 Добавлен: 2021-02-22 16:48:23
Счастливо оставаться / Adieu les cons (2020) WEB-DL 720p от ELEKTRI4KA | iTunes

Название: Счастливо оставаться
Оригинальное название: Adieu les cons
Год выхода: 2020
Жанр: Драма, комедия
Режиссер: Альбер Дюпонтель
В ролях: Виржини Эфира, Альбер Дюпонтель, Николя Марье, Жакки Берруайе, Филипп Юшан, Бастьен Угетто, Марилу Оссийу, Мишель Вюйермоз, Лоран Стокер, Киан Кожанди

О фильме: Сюзи узнает, что смертельно больна. Времени осталось мало, и теперь наконец можно сделать то, что она давно хотела. Вместе с Джей Би, находящимся в состоянии полного выгорания и отсутствия интереса к жизни, и мистером Блином, наоборот, ослепленным энтузиазмом, они отправятся в длинное и увлекательное путешествие. Их ждет незабываемый и захватывающий квест, который будет невозможно забыть.

Выпущено: Франция / Manchester Films
Продолжительность: 01:27:08
Озвучивание: Дублированное | iTunes

Файл
Формат: MKV
Качество: WEB-DL 720p
Видео: MPEG-4 AVC, 4027 Kb/s, 1280x536
Аудио: Russian: 48 kHz, AC3 Dolby Digital, 3/2 (L, C, R, l, r) + LFE ch, ~384 Kbps
Субтитры: Нет
Дополнительно: Сохранены оригинальные чаптеры.

Релиз: &


[+] MediaInfo:
Complete name : Schastlivo.ostavatsya.2020.WEB-DL.720p.ELEKTRI4KA.UNIONGANG.mkv
Format : Matroska
Format version : Version 4 / Version 2
File size : 2.69 GiB
Duration : 1 h 27 min
Overall bit rate : 4 413 kb/s
Movie name : Schastlivo.ostavatsya.2020.WEB-DL.720p.ELEKTRI4KA.UNIONGANG.
Encoded date : UTC 2021-02-21 16:03:20
Writing application : mkvmerge v8.3.0 ('Over the Horizon') 64bit
Writing library : libebml v1.3.1 + libmatroska v1.4.2

Video
ID : 1
Format : AVC
Format/Info : Advanced Video Codec
Format profile : Main@L3.1
Format settings, CABAC : No
Format settings, Reference frames : 2 frames
Codec ID : V_MPEG4/ISO/AVC
Duration : 1 h 27 min
Bit rate : 4 027 kb/s
Width : 1 280 pixels
Height : 536 pixels
Display aspect ratio : 2.40:1
Frame rate mode : Constant
Frame rate : 24.000 FPS
Color space : YUV
Chroma subsampling : 4:2:0
Bit depth : 8 bits
Scan type : Progressive
Bits/(Pixel*Frame) : 0.245
Stream size : 2.45 GiB (91%)
Language : English
Default : Yes
Forced : No
Color range : Limited
Color primaries : BT.709
Transfer characteristics : BT.709
Matrix coefficients : BT.709

Audio
ID : 2
Format : AC-3
Format/Info : Audio Coding 3
Mode extension : CM (complete main)
Format settings, Endianness : Big
Codec ID : A_AC3
Duration : 1 h 27 min
Bit rate mode : Constant
Bit rate : 384 kb/s
Channel(s) : 6 channels
Channel positions : Front: L C R, Side: L R, LFE
Sampling rate : 48.0 kHz
Frame rate : 31.250 FPS (1536 spf)
Bit depth : 16 bits
Compression mode : Lossy
Stream size : 239 MiB (9%)
Title : DUB (iTunes)
Language : Russian
Default : Yes
Forced : No

Menu
00:00:00.000 : en:Глава 1
00:08:34.958 : en:Глава 2
00:16:36.041 : en:Глава 3
00:25:14.124 : en:Глава 4
00:33:51.374 : en:Глава 5
00:42:17.999 : en:Глава 6
00:50:30.957 : en:Глава 7
00:59:24.915 : en:Глава 8
01:07:37.290 : en:Глава 9
01:15:44.915 : en:Глава 10



Скриншоты:
[+] Всего файлов в раздаче - 1:
Schastlivo.ostavatsya.2020.WEB-DL.720p.ELEKTRI4KA.UNIONGANG.mkv2.69 GB

Похожие раздачи по запросу - счастливо:
2021-02-22 U Счастливо оставаться / Adieu les cons (2020) WEB-DLRip-AVC | iTunes 743.68 MB ↑ 26 ↓ 7
2021-02-22 U Счастливо оставаться / Adieu les cons (2020) WEB-DLRip от ELEKTRI4KA | iTunes 1.37 GB ↑ 62 ↓ 16
2021-02-22 U Счастливо оставаться / Adieu les cons (2020) WEB-DL 1080p от ELEKTRI4KA | iTunes 2.99 GB ↑ 101 ↓ 33

Отзывы
Зарегистрируйтесь чтобы добавить комментарий.
Загрузите программу
  uTorrent.exe
Обратная связь
Copyleft ©