↑↓torrent.by
Поиск
Логин: Регистрация
Пароль: Восстановить пароль

Добрый день (2016) WEB-DLRip-AVC от Files-x

Скачать dobryy-den-2016-web-dlrip-avc-ot-files-x.torrent
U Магнитная ссылка Размер: 116.85 MB Раздают: 64 Качают: 5 Добавлен: 2021-02-22 16:48:53
Добрый день (2016) WEB-DLRip-AVC от Files-x

Оригинальное название: Добрый день
Год выхода: 2016
Жанр: Чёрная комедия
Режиссер: Ольга Дибцева
В ролях: Александр Паль, Ольга Хохлова, Василий Кортуков, Галина Аверьянова, Андрей Харыбин, Павел Сердюк (II)

О фильме: Курьер идет отдавать заказ семейной паре и оказывается свидетелем цепи случайных смертей.

Страна: Россия
Студия: Фестивальное продвижение "CINEPROMO"
Продолжительность: 00:09:07

Файл
Кодек: h.264
Качество: WEB-DLRip-AVC
Видео: MPEG-4 AVC, ~ 1600 Кбит/с, 1024x576, 25 кадр/с
Аудио: AC3, 2 ch, 192 Кбит/с
Язык: Русский
Cубтитры: Нет

Релиз:
[+] MediaInfo

General
Unique ID                                : 224684397473956099550059198022180874565 (0xA908A412E2AEF34D893AA2B378372945)
Complete name                            : F:Добрый день.(2016).WEB-DLRip.(AVC).by.Серый1779.Files-x.mkv
Format                                   : Matroska
Format version                           : Version 2
File size                                : 117 MiB
Duration                                 : 9 min 7 s
Overall bit rate                         : 1 790 kb/s
Encoded date                             : UTC 2021-02-20 07:14:40
Writing application                      : mkvmerge v7.8.0 ('River Man') 32bit built on Apr  3 2015 12:11:22
Writing library                          : libebml v1.3.1 + libmatroska v1.4.2

Video
ID                                       : 1
Format                                   : AVC
Format/Info                              : Advanced Video Codec
Format profile                           : High@L4.1
Format settings                          : CABAC / 9 Ref Frames
Format settings, CABAC                   : Yes
Format settings, RefFrames               : 9 frames
Codec ID                                 : V_MPEG4/ISO/AVC
Duration                                 : 9 min 7 s
Bit rate                                 : 1 600 kb/s
Width                                    : 1 024 pixels
Height                                   : 576 pixels
Display aspect ratio                     : 16:9
Frame rate mode                          : Constant
Frame rate                               : 25.000 FPS
Color space                              : YUV
Chroma subsampling                       : 4:2:0
Bit depth                                : 8 bits
Scan type                                : Progressive
Bits/(Pixel*Frame)                       : 0.109
Stream size                              : 102 MiB (87%)
Writing library                          : x264 core 146 r2538 121396c
Encoding settings                        : cabac=1 / ref=9 / deblock=1:-2:-1 / analyse=0x3:0x133 / me=umh / subme=9 / psy=1 / psy_rd=1.00:0.15 / mixed_ref=1 / me_range=32 / chroma_me=1 / trellis=2 / 8x8dct=1 / cqm=0 / deadzone=21,11 / fast_pskip=0 / chroma_qp_offset=-3 / threads=18 / lookahead_threads=3 / sliced_threads=0 / nr=0 / decimate=1 / interlaced=0 / bluray_compat=0 / constrained_intra=0 / bframes=9 / b_pyramid=2 / b_adapt=2 / b_bias=0 / direct=1 / weightb=1 / open_gop=0 / weightp=2 / keyint=250 / keyint_min=25 / scenecut=40 / intra_refresh=0 / rc=2pass / mbtree=0 / bitrate=1600 / ratetol=1.0 / qcomp=0.60 / qpmin=0 / qpmax=69 / qpstep=4 / cplxblur=20.0 / qblur=0.5 / ip_ratio=1.40 / pb_ratio=1.30 / aq=2:1.00
Default                                  : Yes
Forced                                   : No
Color range                              : Limited
Color primaries                          : BT.709
Transfer characteristics                 : BT.709
Matrix coefficients                      : BT.709

Audio
ID                                       : 2
Format                                   : AC-3
Format/Info                              : Audio Coding 3
Format settings, Endianness              : Big
Codec ID                                 : A_AC3
Duration                                 : 9 min 7 s
Bit rate mode                            : Constant
Bit rate                                 : 192 kb/s
Channel(s)                               : 2 channels
Channel positions                        : Front: L R
Sampling rate                            : 48.0 kHz
Frame rate                               : 31.250 FPS (1536 SPF)
Bit depth                                : 16 bits
Compression mode                         : Lossy
Stream size                              : 12.5 MiB (11%)
Service kind                             : Complete Main
Default                                  : Yes
Forced                                   : No




Скриншоты:
[+] Всего файлов в раздаче - 1:
Добрый день.(2016).WEB-DLRip.(AVC).by.Серый1779.Files-x.mkv116.85 MB

Похожие раздачи по запросу - добрый:
2020-05-19 U Загадки века. Финляндия: злой, добрый сосед (2020) SATRip 518.41 MB ↑ 192 ↓ 28
2018-12-21 U Добрый вечер (2018) WEB-DLRip-AVC от OlLanDGroup | iTunes 745.67 MB ↑ 545 ↓ 33

Отзывы
Зарегистрируйтесь чтобы добавить комментарий.
Загрузите программу
  uTorrent.exe
Обратная связь
Copyleft ©