↑↓torrent.by
Поиск
Логин: Регистрация
Пароль: Восстановить пароль

Птица в клетке. Заражение / Songbird (2020) WEB-DLRip-AVC | iTunes

Скачать ptica-v-kletke-zarazhenie-songbird-2020-web-dlrip-avc-itunes.torrent
U Магнитная ссылка Размер: 725.98 MB Раздают: 59 Качают: 25 Добавлен: 2021-02-22 16:49:43
Птица в клетке. Заражение / Songbird (2020) WEB-DLRip-AVC | iTunes

Название: Птица в клетке. Заражение
Оригинальное название: Songbird
Год выхода: 2020
Жанр:  Триллер, драма, мелодрама
Режиссер: Адам Мэйсон
В ролях: Кей Джей Апа, София Карсон, Крэйг Робинсон, Брэдли Уитфорд, Петер Стормаре, Эльпидия Каррильо, Александра Даддарио, Лия МакХью, Пол Уолтер Хаузер, Деми Мур

О фильме:
В 2024 году мир все еще находится во власти опасного вируса. Зараженных силой забирают из домов и отправляют в зловещие карантинные лагеря.У курьера Нико редкий иммунитет к болезни, и он свободно передвигается по городу. Когда его девушка Сара заражается, Нико понимает, что за ней уже выехали военные и у него есть считанные часы, чтобы спасти возлюбленную.

Выпущено: США / STX Films, Invisible Narratives, Platinum Dunes
Продолжительность: 01:24:50
Озвучивание: Дублированное | iTunes
Субтитры: Russian (Forced)

Файл
Формат: Matroska
Качество: WEB-DLRip-AVC [ION10]
Видео: 720x300 at 23.976 fps, x264@L4.1, ~1100 kbps, 0.212 bpp
Аудио: AAC, 2 ch, ~96 kbps - | Русский | -
Формат субтитров: softsub (SRT)


[+] M/I
General
Format                      : Matroska
Format version              : Version 4
File size                   : 726 MiB
Duration                    : 1 h 24 min
Overall bit rate            : 1 196 kb/s
Encoded date                : UTC 2021-02-22 09:07:22
Writing application         : mkvmerge v53.0.0 ('Fool's Gold') 64-bit
Writing library             : libebml v1.4.1 + libmatroska v1.6.2
Cover                       : Yes
Attachments                 : Cover.jpg / Cover 2.jpg

Video
ID                          : 1
Format                      : AVC
Format/Info                 : Advanced Video Codec
Format profile              : High@L3.1
Format settings             : CABAC / 5 Ref Frames
Format settings, CABAC      : Yes
Format settings, Reference  : 5 frames
Codec ID                    : V_MPEG4/ISO/AVC
Duration                    : 1 h 24 min
Bit rate                    : 1 100 kb/s
Width                       : 720 pixels
Height                      : 300 pixels
Display aspect ratio        : 2.40:1
Frame rate mode             : Constant
Frame rate                  : 23.976 (24000/1001) FPS
Color space                 : YUV
Chroma subsampling          : 4:2:0
Bit depth                   : 8 bits
Scan type                   : Progressive
Bits/(Pixel*Frame)          : 0.212
Stream size                 : 667 MiB (92%)
Writing library             : x264 core 152 r2851M ba24899
Encoding settings           : cabac=1 / ref=5 / deblock=1:-1:-1 / analyse=0x3:0x113 / me=umh / subme=9 / psy=1 / psy_rd=1.00:0.15 / mixed_ref=1 / me_range=16 / chroma_me=1 / trellis=2 / 8x8dct=1 / cqm=0 / deadzone=21,11 / fast_pskip=1 / chroma_qp_offset=-3 / threads=16 / lookahead_threads=1 / sliced_threads=0 / nr=0 / decimate=1 / interlaced=0 / bluray_compat=0 / constrained_intra=0 / bframes=3 / b_pyramid=2 / b_adapt=2 / b_bias=0 / direct=3 / weightb=1 / open_gop=0 / weightp=2 / keyint=250 / keyint_min=23 / scenecut=40 / intra_refresh=0 / rc_lookahead=50 / rc=2pass / mbtree=1 / bitrate=1100 / ratetol=1.0 / qcomp=0.60 / qpmin=0 / qpmax=69 / qpstep=4 / cplxblur=20.0 / qblur=0.5 / ip_ratio=1.40 / aq=1:1.00
Language                    : English
Default                     : Yes
Forced                      : No

Audio
ID                          : 2
Format                      : AAC LC SBR
Format/Info                 : Advanced Audio Codec Low Complexity with Spectral Band Replication
Commercial name             : HE-AAC
Format settings             : Explicit
Codec ID                    : A_AAC-2
Duration                    : 1 h 24 min
Bit rate                    : 96.0 kb/s
Channel(s)                  : 2 channels
Channel layout              : L R
Sampling rate               : 48.0 kHz
Frame rate                  : 23.438 FPS (2048 SPF)
Compression mode            : Lossy
Stream size                 : 57.5 MiB (8%)
Title                       : DUB
Language                    : Russian
Default                     : Yes
Forced                      : Yes

Text
ID                          : 3
Format                      : UTF-8
Codec ID                    : S_TEXT/UTF8
Codec ID/Info               : UTF-8 Plain Text
Duration                    : 1 h 18 min
Bit rate                    : 5 b/s
Count of elements           : 57
Stream size                 : 3.20 KiB (0%)
Language                    : Russian
Default                     : Yes
Forced                      : No

Menu
00:00:00.000                : :Глава 01
00:07:30.000                : :Глава 02
00:15:00.000                : :Глава 03
00:22:30.000                : :Глава 04
00:30:00.000                : :Глава 05
00:37:30.000                : :Глава 06
00:45:00.000                : :Глава 07
00:52:30.000                : :Глава 08
01:00:00.000                : :Глава 09
01:07:30.000                : :Глава 10
01:15:00.000                : :Глава 11
01:22:30.000                : :Глава 12



Скриншоты:
[+] Всего файлов в раздаче - 1:
Птица в клетке. Заражение.(2020).WEB-DLRip-AVC.mkv725.98 MB

Похожие раздачи по запросу - птица:
2021-02-22 U Птица в клетке. Заражение / Songbird (2020) WEB-DLRip | iTunes 746.37 MB ↑ 78 ↓ 12
2021-02-22 U Птица в клетке. Заражение / Songbird (2020) WEB-DL-HEVC 2160p | 4K | HDR | iTunes 1К9.53 GB ↑ 102 ↓ 100
2021-02-22 U Птица в клетке. Заражение / Songbird (2020) WEBRip 720p | iTunes 2.47 GB ↑ 170 ↓ 121
2021-02-22 U Птица в клетке. Заражение / Songbird (2020) WEB-DL 1080p от ELEKTRI4KA | iTunes 6.03 GB ↑ 113 ↓ 71
2021-02-22 U Птица в клетке. Заражение / Songbird (2020) WEB-DLRip от ELEKTRI4KA | iTunes 1.37 GB ↑ 143 ↓ 54

Отзывы
Зарегистрируйтесь чтобы добавить комментарий.
Загрузите программу
  uTorrent.exe
Обратная связь
Copyleft ©