↑↓torrent.by
Поиск
Логин: Регистрация
Пароль: Восстановить пароль

National Geographic: Тутанхамон: Цветная Версия / King Tut In Colour (2020) HDTV 1080i | P1

Скачать national-geographic-tutanhamon-cvetnaya-versiya-king-tut-in-colour-2020-hdtv-1080i-p1.torrent
U Магнитная ссылка Размер: 2.40 GB Раздают: 48 Качают: 11 Добавлен: 2021-02-22 16:50:01
National Geographic: Тутанхамон: Цветная Версия / King Tut In Colour (2020) HDTV  1080i | P1

Название: Тутанхамон: Цветная Версия
Оригинальное название: King Tut In Colour
Год выхода: 2020
Жанр: Документальный, археология, египтология
Режиссер: Пол Брэдшоу

О фильме:
Спустя столетие после обнаружения гробницы Тутанхамона - самой сенсационной археологической находки в мире, мы получаем возможность понаблюдать за драматическими подробностями открытия саркофага и восхититься скрытыми в нем сокровищами, увидев их именно такими красочными, какими они были в момент погребения. И все это стало возможно благодаря новейшим методам колоризации, которые используют подробные исторические исследования, чтобы представить нам тот Египет, каким он был во времена своего первооткрывателя Говарда Картера.


Страна: США
Студия: Blakeway Productions, National Geographic
Продолжительность: 00:43:58
Перевод: Профессиональный (одноголосый закадровый) Велес

Файл
Кодек: AVC/H.264
Качество: HDTV  1080i
Видео: 1920x1080 (16:9), 25 fps, AVC (H.264), Main@L4, 7032 kbps, 0.136 bit/pixel
Звук:
Русский 48 kHz, MPEG Layer 2, 2 ch, ~192.00 kbps avg
Английский 48 kHz, MPEG Layer 2, 2 ch, ~192.00 kbps avg

Семпл

Релиз от: kyba
[+] MediaInfo
Complete name               : F:НаладкиТутанхамон_ Цветная Версия.ts
Format                      : MPEG-TS
File size                   : 2.40 GiB
Duration                    : 43 min 58 s
Overall bit rate mode       : Variable
Overall bit rate            : 7 806 kb/s

Video
ID                          : 1146 (0x47A)
Menu ID                     : 134 (0x86)
Format                      : AVC
Format/Info                 : Advanced Video Codec
Format profile              : Main@L4
Format settings             : CABAC / 4 Ref Frames
Format settings, CABAC      : Yes
Format settings, RefFrames  : 4 frames
Format settings, GOP        : M=4, N=24
Codec ID                    : 27
Duration                    : 43 min 58 s
Bit rate                    : 7 032 kb/s
Width                       : 1 920 pixels
Height                      : 1 080 pixels
Display aspect ratio        : 16:9
Frame rate                  : 25.000 FPS
Standard                    : Component
Color space                 : YUV
Chroma subsampling          : 4:2:0
Bit depth                   : 8 bits
Scan type                   : Interlaced
Scan type, store method     : Separated fields
Scan order                  : Top Field First
Bits/(Pixel*Frame)          : 0.136
Stream size                 : 2.16 GiB (90%)
Color range                 : Limited
Color primaries             : BT.709
Transfer characteristics    : BT.709
Matrix coefficients         : BT.709

Audio #1
ID                          : 1147 (0x47B)
Menu ID                     : 134 (0x86)
Format                      : MPEG Audio
Format version              : Version 1
Format profile              : Layer 2
Codec ID                    : 3
Duration                    : 43 min 58 s
Bit rate mode               : Constant
Bit rate                    : 192 kb/s
Channel(s)                  : 2 channels
Sampling rate               : 48.0 kHz
Compression mode            : Lossy
Stream size                 : 60.4 MiB (2%)
Language                    : Russian

Audio #2
ID                          : 1148 (0x47C)
Menu ID                     : 134 (0x86)
Format                      : MPEG Audio
Format version              : Version 1
Format profile              : Layer 2
Codec ID                    : 3
Duration                    : 43 min 58 s
Bit rate mode               : Constant
Bit rate                    : 192 kb/s
Channel(s)                  : 2 channels
Sampling rate               : 48.0 kHz
Compression mode            : Lossy
Stream size                 : 60.4 MiB (2%)
Language                    : English




Скриншоты:
[+] Всего файлов в раздаче - 1:
Тутанхамон_ Цветная Версия.ts2.40 GB

Похожие раздачи по запросу - national:
2020-05-18 U National Geographic: Космос: возможные миры / Cosmos: Possible Worlds [S01] (2020) WEBRip 720p, HDTVRip 720p | L1, P1 17.94 GB ↑ 303 ↓ 48
2020-04-28 U National Geographic. Марс: Один день на красной планете / Mars: One Day on the Red Planet (2020) HDTV 1080p | P1 2.10 GB ↑ 242 ↓ 28

Отзывы
Зарегистрируйтесь чтобы добавить комментарий.
Загрузите программу
  uTorrent.exe
Обратная связь
Copyleft ©