↑↓torrent.by
Поиск
Логин: Регистрация
Пароль: Восстановить пароль

Истории конца света / Armageddon Tales (2021) WEB-DL 1080p от ELEKTRI4KA | iTunes

Скачать istorii-konca-sveta-armageddon-tales-2021-web-dl-1080p-ot-elektri4ka-itunes.torrent
U Магнитная ссылка Размер: 3.37 GB Раздают: 148 Качают: 56 Добавлен: 2021-02-23 05:04:20
Истории конца света / Armageddon Tales (2021) WEB-DL 1080p от ELEKTRI4KA | iTunes

Название: Истории конца света
Оригинальное название: Armageddon Tales
Год выхода: 2021
Жанр: Фантастика, боевик
Режиссер: Калеб Леховски, Джона Шварц, Александр Лаппён, Пол Плетт
В ролях: Джереми Дэш, Сара Гроло, Эрин Хиндман, Фэй Келман, Дэвид Мастерсон, Манни Л. Перез, Кори Рэйдмейкер, Мередит Роуз

О фильме:  Пережив всемирную пандемию, двое мужчин с разными судьбами и две женщины из выжившей колонии, а также молодая девушка и мужчина пытаются выжить в мире после пандемии, пересекая постапокалиптические ландшафты.

Выпущено: США / Hewes Pictures
Продолжительность: 01:34:32
Озвучивание #1: Профессиональное (многоголосое) | русский язык | iTunes
Озвучивание #2: Профессиональное (многоголосое) | украинский язык | iTunes

Файл
Формат: MKV
Качество: WEB-DL 1080p
Видео: MPEG-4 AVC, 4518 Kb/s, 1920x808
Аудио #1: Russian: 48 kHz, AC3 Dolby Digital, 2/0 (L, R) ch, ~192 Kbps | MVO | iTunes
Аудио #2: Ukrainian: 48 kHz, AC3 Dolby Digital, 2/0 (L, R) ch, ~192 Kbps | MVO | iTunes
Аудио #3: English: 48 kHz, AC3 Dolby Digital, 2/0 (L, R) ch, ~192 Kbps | Original
Субтитры: Нет
Дополнительно: Сохранены оригинальные чаптеры.

Релиз: &


[+] MediaInfo:
Complete name : Istorii.kontsa.sveta.2020.WEB-DL.1080p.ELEKTRI4KA.UNIONGANG.mkv
Format : Matroska
Format version : Version 4 / Version 2
File size : 3.37 GiB
Duration : 1 h 34 min
Overall bit rate : 5 097 kb/s
Movie name : Istorii.kontsa.sveta.2020.WEB-DL.1080p.ELEKTRI4KA.UNIONGANG.
Encoded date : UTC 2021-02-22 16:17:28
Writing application : mkvmerge v8.3.0 ('Over the Horizon') 64bit
Writing library : libebml v1.3.1 + libmatroska v1.4.2

Video
ID : 1
Format : AVC
Format/Info : Advanced Video Codec
Format profile : High@L4
Format settings, CABAC : Yes
Format settings, Reference frames : 5 frames
Codec ID : V_MPEG4/ISO/AVC
Duration : 1 h 34 min
Bit rate : 4 518 kb/s
Width : 1 920 pixels
Height : 808 pixels
Display aspect ratio : 2.40:1
Frame rate mode : Constant
Frame rate : 24.000 FPS
Color space : YUV
Chroma subsampling : 4:2:0
Bit depth : 8 bits
Scan type : Progressive
Bits/(Pixel*Frame) : 0.121
Stream size : 2.98 GiB (89%)
Language : English
Default : Yes
Forced : No
Color range : Limited
Color primaries : BT.709
Transfer characteristics : BT.709
Matrix coefficients : BT.709

Audio #1
ID : 2
Format : AC-3
Format/Info : Audio Coding 3
Mode extension : CM (complete main)
Format settings, Endianness : Big
Codec ID : A_AC3
Duration : 1 h 34 min
Bit rate mode : Constant
Bit rate : 192 kb/s
Channel(s) : 2 channels
Channel positions : Front: L R
Sampling rate : 48.0 kHz
Frame rate : 31.250 FPS (1536 spf)
Bit depth : 16 bits
Compression mode : Lossy
Stream size : 130 MiB (4%)
Title : MVO (iTunes)
Language : Russian
Default : Yes
Forced : Yes

Audio #2
ID : 3
Format : AC-3
Format/Info : Audio Coding 3
Mode extension : CM (complete main)
Format settings, Endianness : Big
Codec ID : A_AC3
Duration : 1 h 34 min
Bit rate mode : Constant
Bit rate : 192 kb/s
Channel(s) : 2 channels
Channel positions : Front: L R
Sampling rate : 48.0 kHz
Frame rate : 31.250 FPS (1536 spf)
Bit depth : 16 bits
Compression mode : Lossy
Stream size : 130 MiB (4%)
Title : MVO (iTunes)
Language : Ukrainian
Default : No
Forced : No

Audio #3
ID : 4
Format : AC-3
Format/Info : Audio Coding 3
Mode extension : CM (complete main)
Format settings, Endianness : Big
Codec ID : A_AC3
Duration : 1 h 34 min
Bit rate mode : Constant
Bit rate : 192 kb/s
Channel(s) : 2 channels
Channel positions : Front: L R
Sampling rate : 48.0 kHz
Frame rate : 31.250 FPS (1536 spf)
Bit depth : 16 bits
Compression mode : Lossy
Stream size : 130 MiB (4%)
Title : Original
Language : English
Default : No
Forced : No

Menu
00:00:00.000 : en:Глава 1
00:08:45.291 : en:Глава 1
00:16:54.541 : en:Глава 3
00:25:03.916 : en:Глава 4
00:34:22.541 : en:Глава 5
00:41:57.416 : en:Глава 6
00:47:10.166 : en:Глава 7
00:52:49.541 : en:Глава 8
00:59:16.457 : en:Глава 9
01:03:21.957 : en:Глава 10
01:10:27.498 : en:Глава 11
01:17:37.123 : en:Глава 12
01:23:11.289 : en:Глава 13
01:26:18.247 : en:Глава 14



Скриншоты:
[+] Всего файлов в раздаче - 1:
Istorii.kontsa.sveta.2020.WEB-DL.1080p.ELEKTRI4KA.UNIONGANG.mkv3.37 GB

Показать еще раздачи по запросу истории:
2021-02-23 U Истории конца света / Armageddon Tales (2021) WEB-DLRip от MegaPeer | iTunes 1.46 GB ↑ 213 ↓ 45
2021-01-23 U Сборник - Страшные истории Рэя Брэдбери (2020) MP3 703.68 MB ↑ 33 ↓ 4
2021-01-06 U Истории квартала 3 / Истории из морга 3 / Tales from the Hood 3 (2020) BDRip от Twister & ExKinoRay | iTunes 1.42 GB ↑ 52 ↓ 5
2020-12-28 U Карантинные истории / Relatos con-fin-a-dos / Tales of the Lockdown (2020) WEB-DL 1080p от ELEKTRI4KA | iTunes 3.45 GB ↑ 173 ↓ 80
2020-12-26 U Карантинные истории / Relatos con-fin-a-dos (2020) WEB-DLRip | P 1.46 GB ↑ 88 ↓ 28
2020-12-12 U Александр Маршал - Невыдуманные истории (2020) MP3 195.61 MB ↑ 67 ↓ 19
2020-12-07 U Рождественские истории 9: Лес Рождественских елей / Christmas Stories 9: The Christmas Tree Forest (2020) PC 1.13 GB ↑ 69 ↓ 17

Отзывы
Зарегистрируйтесь чтобы добавить комментарий.
Загрузите программу
  uTorrent.exe
Обратная связь
Copyleft ©