↑↓torrent.by
Поиск
Логин: Регистрация
Пароль: Восстановить пароль

Огонь (2020) WEB-DL 720p от ELEKTRI4KA | iTunes

Скачать ogon-2020-web-dl-720p-ot-elektri4ka-itunes.torrent
U Магнитная ссылка Размер: 4.03 GB Раздают: 58 Качают: 53 Добавлен: 2021-02-23 05:04:58
Огонь (2020) WEB-DL 720p от ELEKTRI4KA | iTunes

Название: Огонь
Год выхода: 2020
Жанр: Драма, приключения
Режиссер: Алексей Нужный
В ролях: Константин Хабенский, Иван Янковский, Стася Милославская, Антон Богданов, Виктор Добронравов, Роман Курцын, Тихон Жизневский, Ирина Горбачева, Евгения Дмитриева, Юрий Кузнецов

О фильме: Героическая история о пожарных и спасателях. То, что обычно называют подвигом, для них — привычные будни, если только можно привыкнуть к смертельной опасности и предельному риску. Когда людям, попавшим в беду, кажется, что помощи ждать неоткуда, на выручку приходят спасатели, чтобы встать на пути беспощадной стихии.

Выпущено: Россия / Студия Тритэ
Продолжительность: 02:11:42
Озвучивание: Оригинальное | iTunes

Файл
Формат: MKV
Качество: WEB-DL 720p
Видео: MPEG-4 AVC, 3990 Kb/s, 1280x532
Аудио: Russian: 48 kHz, AC3 Dolby Digital, 3/2 (L, C, R, l, r) + LFE ch, ~384 Kbps
Субтитры: Нет
Дополнительно: Сохранены оригинальные чаптеры.

Релиз: &


[+] MediaInfo:
Complete name: Ogon.2020.WEB-DL.720p.ELEKTRI4KA.UNIONGANG.mkv
Format: Matroska
Format version: Version 4 / Version 2
File size: 4.03 GiB
Duration: 2 h 11 min
Overall bit rate: 4 376 kb/s
Movie name: Ogon.2020.WEB-DL.720p.ELEKTRI4KA.UNIONGANG.
Encoded date: UTC 2021-02-22 19:38:41
Writing application: mkvmerge v8.3.0 ('Over the Horizon') 64bit
Writing library: libebml v1.3.1 + libmatroska v1.4.2

Video
ID: 1
Format: AVC
Format/Info: Advanced Video Codec
Format profile: Main@L3.1
Format settings, CABAC: No
Format settings, Reference frames: 2 frames
Codec ID: V_MPEG4/ISO/AVC
Duration: 2 h 11 min
Bit rate: 3 990 kb/s
Width: 1 280 pixels
Height: 532 pixels
Display aspect ratio: 2.40:1
Frame rate mode: Constant
Frame rate: 24.000 FPS
Color space: YUV
Chroma subsampling: 4:2:0
Bit depth: 8 bits
Scan type: Progressive
Bits/(Pixel*Frame): 0.244
Stream size: 3.67 GiB (91%)
Language: English
Default: Yes
Forced: No
Color range: Limited
Color primaries: BT.709
Transfer characteristics: BT.709
Matrix coefficients: BT.709

Audio
ID: 2
Format: AC-3
Format/Info: Audio Coding 3
Mode extension: CM (complete main)
Format settings, Endianness: Big
Codec ID: A_AC3
Duration: 2 h 11 min
Bit rate mode: Constant
Bit rate: 384 kb/s
Channel(s): 6 channels
Channel positions: Front: L C R, Side: L R, LFE
Sampling rate: 48.0 kHz
Frame rate: 31.250 FPS (1536 spf)
Bit depth: 16 bits
Compression mode: Lossy
Stream size: 362 MiB (9%)
Language: Russian
Default: Yes
Forced: No

Menu
00:00:00.000: ru:Глава 1
00:04:37.083: ru:Глава 2
00:10:44.124: ru:Глава 3
00:18:59.124: ru:Глава 4
00:24:58.832: ru:Глава 5
00:29:49.540: ru:Глава 6
00:38:08.998: ru:Глава 7
00:48:28.206: ru:Глава 8
00:53:17.956: ru:Глава 9
01:00:08.414: ru:Глава 10
01:07:34.872: ru:Глава 11
01:14:45.080: ru:Глава 12
01:22:05.496: ru:Глава 13
01:34:41.996: ru:Глава 14
01:50:36.162: ru:Глава 15
01:55:21.995: ru:Глава 16



Скриншоты:
[+] Всего файлов в раздаче - 1:
Ogon.2020.WEB-DL.720p.ELEKTRI4KA.UNIONGANG.mkv4.03 GB

Показать еще раздачи по запросу огонь:
2021-02-25 U Огонь (2020) WEB-DLRip-AVC от ExKinoRay | iTunes 2.16 GB ↑ 50 ↓ 19
2021-02-24 U Огонь (2020) WEB-DLRip от Files-x 2.18 GB ↑ 50 ↓ 48
2021-02-24 U Огонь (2020) WEB-DLRip-AVC от Files-x | iTunes 2.17 GB ↑ 37 ↓ 18
2021-02-23 U Огонь (2020) WEB-DLRip от Generalfilm | КПК | iTunes 500.76 MB ↑ 136 ↓ 22
2021-02-23 U Огонь (2020) WEB-DLRip-AVC | iTunes 742.38 MB ↑ 226 ↓ 87
2021-02-23 U Огонь (2020) WEB-DLRip-AVC от MegaPeer | iTunes 2.71 GB ↑ 530 ↓ 145
2021-02-23 U Огонь (2020) WEB-DLRip-AVC от MegaPeer | iTunes 1.65 GB ↑ 739 ↓ 166

Отзывы
Зарегистрируйтесь чтобы добавить комментарий.
Загрузите программу
  uTorrent.exe
Обратная связь
Copyleft ©