↑↓torrent.by
Поиск
Логин: Регистрация
Пароль: Восстановить пароль

Я пытался уговорить её в догэдза / На коленях умоляю / Dogeza de Tanondemita [S01 + Special] (2020) BDRip 1080p от Deadmauvlad | Без цензуры

Скачать ya-pytalsya-ugovorit-ee-v-dogedza-na-kolenyah-umolyayu-dogeza-de-tanondemita-s01-special-2020-bdrip-1080p-ot-deadmauvlad-bez-cenzury.torrent
U Магнитная ссылка Размер: 2.95 GB Раздают: 39 Качают: 25 Добавлен: 2021-02-24 07:02:13
Я пытался уговорить её в догэдза  / На коленях умоляю / Dogeza de Tanondemita [S01 + Special] (2020) BDRip 1080p от Deadmauvlad | Без цензуры

Информация о фильме
Название: Я пытался уговорить её в догэдза (На коленях умоляю)
Оригинальное название: Dogeza De Tanondemita
Год: 2020
Производство: Япония
Жанр:  комедия, фэнтези, этти
Категория: TV сериалы
Cерий: 12 эп., + 1 спешл, 4 мин
Режиссер: Нагай Симпэй
Автор оригинала: Фунацу Кадзуки
Снято по манге: Я пытался уговорить её в догэдза
Возрастное ограничение: 18+
Цензура: Нет ** (см.скрины)

О фильме:
Аниме для взрослых поведает об одержимости главного персонажа чувственными удовольствиями. Досэсуару очень нравится рассматривать, что скрывается под одеждой барышень. Хитрец пойдет на разные уловки, чтобы добиться своего. Он доводит до шокового состояния невинных юных особ своими весьма непристойными просьбами. Героини попадаются в хитроумную ловушку и, превозмогая стыдливость и смущение, идут на поводу у парня-извращенца. Ведь перед чарами героя устоять невозможно. Как же отказать даже в неприличном предложении, если мужчина умоляет в позе догэдза? Он выказывает высшее уважение и почтение, становясь на колени и опустив голову на землю, страстно шепча «пожалуйста». И женщины не выдерживают напора: и оголяют грудь и даже показывают панцу...

Страна: Япония
Продолжительность: ~ 00:04:00 (серия)
Перевод: Любительский (Многоголосый) AniDUB (Lem0nka & Qbiq & Orru)

Качество: BDRip 1080p | Формат: .MKV| Кодек: AVC
Видео: 1920x1080 (16:9), 23.976 fps, 7 147 kb/s (0.144 bit/pixel)
Аудио №1: AAC, 48,0 КГц, 2 ch, 192 Кбит/сек, CBR |  | AniDUB
Аудио №2: FLAC, 48.0 kHz, 2 ch, 801 kb/s, VBR |  | Japan (Оригинал)
Субтитры: Русские (01-12 серия); English Full sub (01-13)

Релиз / Автор рипа: Deadmauvlad ^_^
[+] Пример отсутствия цензуры





[+] MediaInfo
Общее
Уникальный идентификатор                 : 319715728496530653437124864711413533003 (0xF087026FEC35B63467A9842D8E9D094B)
Полное имя                               : [Deadmau- RAWS] Dogeza.De.Tanondemita.S01.UNSEN.BDRip.1080p.RUS.ENG.JAP.Deadmauvlad.Ep.01.mkv
Формат                                   : Matroska
Версия формата                           : Version 4
Размер файла                             : 216 Мбайт
Продолжительность                        : 3 м. 30 с.
Режим общего битрейта                    : Переменный
Общий поток                              : 8 601 Кбит/сек
Название фильма                          : [Deadmau- RAWS] Dogeza.De.Tanondemita.S01.UNSEN.BDRip.1080p.RUS.ENG.JAP.Deadmauvlad
Дата кодирования                         : UTC 2021-02-22 14:22:43
Программа кодирования                    : mkvmerge v52.0.0 ('Secret For The Mad') 64-bit
Библиотека кодирования                   : libebml v1.4.1 + libmatroska v1.6.2
Обложка                                  : Yes
Attachments                              : Roboto-Medium.ttf / Trebuchet MS.ttf / cover.png

Видео
Идентификатор                            : 1
Формат                                   : AVC
Формат/Информация                        : Advanced Video Codec
Профиль формата                          : High@L4.1
Настройки формата                        : CABAC / 4 Ref Frames
Параметр CABAC формата                   : Да
Параметр RefFrames формата               : 4 кадра
Идентификатор кодека                     : V_MPEG4/ISO/AVC
Продолжительность                        : 3 м. 30 с.
Битрейт                                  : 7 147 Кбит/сек
Ширина                                   : 1 920 пикселей
Высота                                   : 1 080 пикселей
Соотношение сторон                       : 16:9
Режим частоты кадров                     : Постоянный
Частота кадров                           : 23,976 (24000/1001) кадра/сек
Цветовое пространство                    : YUV
Субдискретизация насыщенности            : 4:2:0
Битовая глубина                          : 8 бит
Тип развёртки                            : Прогрессивная
Бит/(Пиксели*Кадры)                      : 0.144
Размер потока                            : 177 Мбайт (82%)
Заголовок                                : Encoder by Deadmauvlad
Библиотека кодирования                   : x264 core 161 r3027+53 2464769 t_mod_New [(8 & 10)-bit@all X86_64]
Настройки программы                      : cabac=1 / ref=4 / deblock=1:1:1 / analyse=0x3:0x113 / me=umh / subme=10 / psy=1 / fade_compensate=0.00 / psy_rd=0.95:0.00 / mixed_ref=0 / me_range=34 / chroma_me=1 / trellis=2 / 8x8dct=1 / cqm=0 / deadzone=21,11 / fast_pskip=1 / chroma_qp_offset=-2 / threads=12 / lookahead_threads=3 / sliced_threads=0 / nr=0 / decimate=1 / interlaced=0 / bluray_compat=0 / constrained_intra=0 / fgo=0 / bframes=16 / b_pyramid=2 / b_adapt=2 / b_bias=0 / direct=1 / weightb=1 / open_gop=0 / weightp=2 / keyint=240 / keyint_min=24 / scenecut=40 / intra_refresh=0 / rc=2pass / mbtree=0 / bitrate=7147 / ratetol=1.0 / qcomp=0.60 / qpmin=4:4:4 / qpmax=69:69:69 / qpstep=4 / cplxblur=20.0 / qblur=0.5 / ip_ratio=1.40 / pb_ratio=1.30 / aq=1:0.96 / aq-sensitivity=10.00 / aq-factor=1.00:1.00:1.00 / aq2=0 / aq3=0
Язык                                     : English
Default                                  : Да
Forced                                   : Нет
Цветовой диапазон                        : Limited
Основные цвета                           : BT.709
Коэффициенты матрицы                     : BT.709

Аудио #1
Идентификатор                            : 2
Формат                                   : AAC LC
Формат/Информация                        : Advanced Audio Codec Low Complexity
Идентификатор кодека                     : A_AAC-2
Продолжительность                        : 3 м. 30 с.
Битрейт                                  : 192 Кбит/сек
Каналы                                   : 2 канала
Channel layout                           : L R
Частота                                  : 44,1 КГц
Частота кадров                           : 43,066 кадра/сек (1024 SPF)
Метод сжатия                             : С потерями
Размер потока                            : 4,84 Мбайт (2%)
Язык                                     : Russian
Default                                  : Нет
Forced                                   : Нет

Аудио #2
Идентификатор                            : 3
Формат                                   : FLAC
Формат/Информация                        : Free Lossless Audio Codec
Идентификатор кодека                     : A_FLAC
Продолжительность                        : 3 м. 30 с.
Вид битрейта                             : Переменный
Битрейт                                  : 801 Кбит/сек
Каналы                                   : 2 канала
Channel layout                           : L R
Частота                                  : 48,0 КГц
Частота кадров                           : 11,722 кадров/сек (4095 SPF)
Битовая глубина                          : 16 бит
Метод сжатия                             : Без потерь
Размер потока                            : 20,1 Мбайт (9%)
Библиотека кодирования                   : libFLAC 1.2.1 (UTC 2007-09-17)
Язык                                     : Japanese
Default                                  : Да
Forced                                   : Нет

Текст #1
Идентификатор                            : 4
Формат                                   : ASS
Идентификатор кодека                     : S_TEXT/ASS
Идентификатор кодека/Информация          : Advanced Sub Station Alpha
Продолжительность                        : 3 м. 30 с.
Битрейт                                  : 229 бит/сек
Count of elements                        : 76
Метод сжатия                             : Без потерь
Размер потока                            : 5,92 Кбайт (0%)
Язык                                     : Russian
Default                                  : Нет
Forced                                   : Нет

Текст #2
Идентификатор                            : 5
Формат                                   : ASS
Идентификатор кодека                     : S_TEXT/ASS
Идентификатор кодека/Информация          : Advanced Sub Station Alpha
Продолжительность                        : 3 м. 25 с.
Битрейт                                  : 162 бит/сек
Count of elements                        : 75
Метод сжатия                             : Без потерь
Размер потока                            : 4,08 Кбайт (0%)
Заголовок                                : CR
Язык                                     : English
Default                                  : Нет
Forced                                   : Нет

Меню
00:00:00.000                             : en:Intro
00:00:20.000                             : en:Main EP
00:02:20.000                             : en:ED
00:03:20.000                             : en:PV



Скриншоты:
[+] Всего файлов в раздаче - 13:
[Deadmau- RAWS] Dogeza.De.Tanondemita.S01.UNSEN.BDRip.1080p.RUS.ENG.JAP.Deadmauvlad.Ep.12.END.mkv338.24 MB
[Deadmau- RAWS] Dogeza.De.Tanondemita.S01.UNSEN.BDRip.1080p.RUS.ENG.JAP.Deadmauvlad.Ep.02.mkv229.73 MB
[Deadmau- RAWS] Dogeza.De.Tanondemita.S01.UNSEN.BDRip.1080p.RUS.ENG.JAP.Deadmauvlad.Ep.03.mkv227.12 MB
[Deadmau- RAWS] Dogeza.De.Tanondemita.S01.UNSEN.BDRip.1080p.RUS.ENG.JAP.Deadmauvlad.Ep.04.mkv214.92 MB
[Deadmau- RAWS] Dogeza.De.Tanondemita.S01.UNSEN.BDRip.1080p.RUS.ENG.JAP.Deadmauvlad.Ep.05.mkv212.20 MB
[Deadmau- RAWS] Dogeza.De.Tanondemita.S01.UNSEN.BDRip.1080p.RUS.ENG.JAP.Deadmauvlad.Ep.06.mkv218.96 MB
[Deadmau- RAWS] Dogeza.De.Tanondemita.S01.UNSEN.BDRip.1080p.RUS.ENG.JAP.Deadmauvlad.Ep.07.mkv218.86 MB
[Deadmau- RAWS] Dogeza.De.Tanondemita.S01.UNSEN.BDRip.1080p.RUS.ENG.JAP.Deadmauvlad.Ep.08.mkv236.28 MB
[Deadmau- RAWS] Dogeza.De.Tanondemita.S01.UNSEN.BDRip.1080p.RUS.ENG.JAP.Deadmauvlad.Ep.09.mkv222.95 MB
[Deadmau- RAWS] Dogeza.De.Tanondemita.S01.UNSEN.BDRip.1080p.RUS.ENG.JAP.Deadmauvlad.Ep.10.mkv217.88 MB
[Deadmau- RAWS] Dogeza.De.Tanondemita.S01.UNSEN.BDRip.1080p.RUS.ENG.JAP.Deadmauvlad.Ep.11.mkv229.53 MB
[Deadmau- RAWS] Dogeza.De.Tanondemita.S01.UNSEN.BDRip.1080p.RUS.ENG.JAP.Deadmauvlad.Ep.01.mkv216.28 MB
[Deadmau- RAWS] Dogeza.De.Tanondemita.S01.UNSEN.BDRip.1080p.RUS.ENG.JAP.Deadmauvlad.Ep.13.Special.mkv240.32 MB

Отзывы
Зарегистрируйтесь чтобы добавить комментарий.
Загрузите программу
  uTorrent.exe
Обратная связь
Copyleft ©