↑↓torrent.by
Поиск
Логин: Регистрация
Пароль: Восстановить пароль

Атака титанов / Вторжение титанов / Shingeki no Kyojin [04x01-11 из 16] (2020) WEBRip 1080p | D | StudioBand

Скачать ataka-titanov-vtorzhenie-shingeki-no-kyojin-04x01-11-iz-16-2020-webrip-1080p-d-studioband.torrent
U Магнитная ссылка Размер: 15.57 GB Раздают: 42 Качают: 55 Добавлен: 2021-02-24 07:04:20
Атака титанов / Вторжение титанов / Shingeki no Kyojin [04x01-11 из 16] (2020) WEBRip 1080p | D | StudioBand

Название: Атака титанов
Альтернативное название: Вторжение титанов
Оригинальное названия: Shingeki no Kyojin
Год выхода: 2020
Жанр: экшен, военное, детектив, драма, фэнтези, сёнен
Режиссеры: Дзюн Сисидо, Юитиро Хаяси

О фильме:
Минуло четыре года с тех пор, как члены Разведкорпуса достигли моря. Из дневников Гриши Йегера люди узнали, что всё это время противостояли не только титанам, но и другой нации.
За морем Марлия заканчивает длительную войну с войсками Средневосточного Альянса. Нация, всегда полагавшаяся на титанов в войне, осознает, что постепенно теряет первенство в военном противостоянии из-за наращивания другими государствами военной мощи и развития противотитанического оружия. Чтобы удержать лидирующую позицию на мировой арене, Марлии необходима сила Титана-основателя, сильнейшего из девяти изначальных титанов, способного контролировать других титанов. К несчастью для Марлии, эта сила всё ещё находится на острове Парадиз в руках Эрена Йегера. Райнеру Брауну — единственному воину, вернувшемуся после провальной операции по захвату Основателя, вновь предстоит столкнуться с бывшими товарищами.
Экранизация восьмой и девятой по счёту сюжетных арок одноименной манги за авторством Хадзимэ Исаямы. © Shikimori


Страна: Япония
Продолжительность: ~ 00:24:00 (серия)
Перевод: Дублированный | StudioBand

Файл
Формат: MKV
Кодек: MPEG-4 AVC
Качество: WEBRip 1080p
Видео: 1920x1080, ~ 8 852 kb/s, 23.976 FPS. 8 bits
Аудио #1 (русский): AAC LC, ~ 319 kb/s, 2 channels, 48.0 kHz
Субтитры: русские (вшитые, на надписи)

Релиз:

22.02.2021 обновлено. Добавлена 11-я серия.


[+] MediaInfo

General
Unique ID                   : 42040481603408335044055591686878116050 (0x1FA0B3C5FA3B990032554EA8A565B8D2)
Complete name               : [KORSARS]_Shingeki.no.Kyojin.The.Final.Season.[S04E01].WEBRip.1080p_[StudioBand].mkv
Format                      : Matroska
Format version              : Version 4
File size                   : 1.53 GiB
Duration                    : 23 min 55 s
Overall bit rate            : 9 174 kb/s
Movie name                  : [KORSARS]_Shingeki.no.Kyojin.The.Final.Season.[S04E01].WEBRip.1080p_[StudioBand]
Encoded date                : UTC 2020-12-07 17:41:05
Writing application         : mkvmerge v51.0.0 ('I Wish') 64-bit
Writing library             : libebml v1.4.0 + libmatroska v1.6.2

Video
ID                          : 1
Format                      : AVC
Format/Info                 : Advanced Video Codec
Format profile              : High@L4.1
Format settings             : CABAC / 4 Ref Frames
Format settings, CABAC      : Yes
Format settings, Reference  : 4 frames
Codec ID                    : V_MPEG4/ISO/AVC
Duration                    : 23 min 55 s
Bit rate                    : 8 852 kb/s
Width                       : 1 920 pixels
Height                      : 1 080 pixels
Display aspect ratio        : 16:9
Frame rate mode             : Constant
Frame rate                  : 23.976 (24000/1001) FPS
Color space                 : YUV
Chroma subsampling          : 4:2:0
Bit depth                   : 8 bits
Scan type                   : Progressive
Bits/(Pixel*Frame)          : 0.178
Stream size                 : 1.48 GiB (96%)
Title                       : [KORSARS]_Shingeki.no.Kyojin.The.Final.Season.[S04E01].WEBRip.1080p_[StudioBand]
Writing library             : x264 core 155 r2901 7d0ff22
Encoding settings           : cabac=1 / ref=4 / deblock=1:1:1 / analyse=0x3:0x133 / me=umh / subme=10 / psy=1 / psy_rd=0.40:0.00 / mixed_ref=1 / me_range=24 / chroma_me=1 / trellis=2 / 8x8dct=1 / cqm=0 / deadzone=21,11 / fast_pskip=1 / chroma_qp_offset=-2 / threads=34 / lookahead_threads=8 / sliced_threads=0 / nr=0 / decimate=1 / interlaced=0 / bluray_compat=0 / constrained_intra=0 / bframes=10 / b_pyramid=2 / b_adapt=2 / b_bias=0 / direct=3 / weightb=1 / open_gop=0 / weightp=2 / keyint=250 / keyint_min=23 / scenecut=40 / intra_refresh=0 / rc_lookahead=60 / rc=crf / mbtree=1 / crf=13.0 / qcomp=0.60 / qpmin=0 / qpmax=69 / qpstep=4 / ip_ratio=1.40 / aq=1:0.60
Default                     : Yes
Forced                      : No

Audio
ID                          : 2
Format                      : AAC LC
Format/Info                 : Advanced Audio Codec Low Complexity
Codec ID                    : A_AAC-2
Duration                    : 23 min 55 s
Bit rate                    : 319 kb/s
Channel(s)                  : 2 channels
Channel layout              : L R
Sampling rate               : 48.0 kHz
Frame rate                  : 46.875 FPS (1024 SPF)
Compression mode            : Lossy
Delay relative to video     : -21 ms
Stream size                 : 54.6 MiB (3%)
Title                       : [KORSARS]_Shingeki.no.Kyojin.The.Final.Season.[S04E01].WEBRip.1080p_[StudioBand]
Language                    : Russian
Default                     : Yes
Forced                      : No



Скриншоты:
[+] Всего файлов в раздаче - 11:
[KORSARS]_Shingeki.no.Kyojin.The.Final.Season.[S04E04].WEBRip.1080p_[StudioBand].mkv1.28 GB
[KORSARS]_Shingeki.no.Kyojin.The.Final.Season.[S04E11].WEBRip.1080p_[StudioBand].mkv1.30 GB
[KORSARS]_Shingeki.no.Kyojin.The.Final.Season.[S04E05].WEBRip.1080p_[StudioBand].mkv1.35 GB
[KORSARS]_Shingeki.no.Kyojin.The.Final.Season.[S04E10].WEBRip.1080p_[StudioBand].mkv1.38 GB
[KORSARS]_Shingeki.no.Kyojin.The.Final.Season.[S04E06].WEBRip.1080p_[StudioBand].mkv1.41 GB
[KORSARS]_Shingeki.no.Kyojin.The.Final.Season.[S04E02].WEBRip.1080p_[StudioBand].mkv1.42 GB
[KORSARS]_Shingeki.no.Kyojin.The.Final.Season.[S04E09].WEBRip.1080p_[StudioBand].mkv1.42 GB
[KORSARS]_Shingeki.no.Kyojin.The.Final.Season.[S04E03].WEBRip.1080p_[StudioBand].mkv1.47 GB
[KORSARS]_Shingeki.no.Kyojin.The.Final.Season.[S04E08].WEBRip.1080p_[StudioBand].mkv1.51 GB
[KORSARS]_Shingeki.no.Kyojin.The.Final.Season.[S04E07].WEBRip.1080p_[StudioBand].mkv1.51 GB
[KORSARS]_Shingeki.no.Kyojin.The.Final.Season.[S04E01].WEBRip.1080p_[StudioBand].mkv1.53 GB

Показать еще раздачи по запросу атака:
2021-03-30 U Атака титанов / Вторжение титанов / Shingeki no Kyojin [S04] (2020-2021) WEBRip 1080p | D | StudioBand 22.40 GB ↑ 31 ↓ 47
2021-03-24 U Атака титанов / Вторжение титанов / Shingeki no Kyojin [04x01-15 из 16] (2020-2021) WEBRip 1080p | D | StudioBand 21.05 GB ↑ 60 ↓ 100
2021-02-09 U Атака титанов / Вторжение титанов / Shingeki no Kyojin [04x01-09 из 16] (2020) WEBRip 1080p | D | StudioBand 12.89 GB ↑ 61 ↓ 128
2021-02-02 U Атака титанов / Вторжение титанов / Shingeki no Kyojin [04x01-08 из 16] (2020) WEBRip 1080p | D | StudioBand 11.48 GB ↑ 80 ↓ 145
2021-01-27 U Атака титанов / Вторжение титанов / Shingeki no Kyojin [04x01-07 из 16] (2020) WEBRip 1080p | D | StudioBand 9.97 GB ↑ 55 ↓ 45
2021-01-19 U Атака титанов / Вторжение титанов / Shingeki no Kyojin [04x01-06 из 16] (2020) WEBRip 1080p | D | StudioBand 8.46 GB ↑ 59 ↓ 74
2021-01-13 U Атака титанов / Вторжение титанов / Shingeki no Kyojin [04x01-05 из 16] (2020) WEBRip 1080p | D | StudioBand 7.05 GB ↑ 66 ↓ 26

Отзывы
Зарегистрируйтесь чтобы добавить комментарий.
Загрузите программу
  uTorrent.exe
Обратная связь
Copyleft ©