↑↓torrent.by
Поиск
Логин: Регистрация
Пароль: Восстановить пароль

Семейка Крудс: Новоселье / The Croods: A New Age (2020) BDRip 720p от селезень | D, P | iTunes

Скачать semeyka-kruds-novosele-the-croods-a-new-age-2020-bdrip-720p-ot-selezen-d-p-itunes.torrent
U Магнитная ссылка Размер: 4.15 GB Раздают: 59 Качают: 30 Добавлен: 2021-02-25 02:31:58
Семейка Крудс: Новоселье / The Croods: A New Age (2020) BDRip 720p от селезень | D, P | iTunes

Название: Семейка Крудс: Новоселье
Оригинальное название: The Croods: A New Age
Год выхода: 2020
Жанр: Мультфильм, фэнтези, комедия, приключения, семейный, полнометражный
Режиссер: Джоэль Кроуфорд
В ролях: Николас Кейдж, Эмма Стоун, Райан Рейнольдс, Кэтрин Кинер, Клорис Личмен, Кларк Дьюк, Лесли Манн, Питер Динклэйдж, Келли Мари Трэн, Кейли Кроуфорд

О фильме: Такие харизматичные герои как члены клана Крудс просто не в силах усидеть на месте. Они смело идут навстречу самым головокружительным приключениям и готовы ответить непредсказуемостью и находчивостью на любой вызов судьбы.

Страна: США
Студия: DreamWorks Animation
Продолжительность: 01:35:14
Перевод(ы):
#1: Дублированный | iTunes
#2: Профессиональный многоголосый | HDRezka Studio

Качество: BDRip 720p
Видео: MPEG-4 AVC, 1280x544,4950 Кbit/s, 23.976 fps
Аудио #01: 48 kHz, AC3, 5.1, 384 Kbps | iTunes | RUS |
Аудио #02: 48 kHz, AC3, 5.1, 448 Kbps | HDRezka Studio | RUS |
Аудио #03: 48 kHz, AC3, 5.1, 448 Kbps | Оригинал | ENG |
Субтитры: Русские (Forced, full), английские

Релиз: Присоединяйся к:


[+] MI
General
Unique ID                   : 204954268337543440817848628531233195988 (0x9A30C19A6506C9D648E7400BE68E87D4)
Complete name               : D:VideoThe.Croods.A.New.Age.2020.BDRip.720p.seleZen.mkv
Format                      : Matroska
Format version              : Version 4
File size                   : 4.15 GiB
Duration                    : 1 h 35 min
Overall bit rate            : 6 233 kb/s
Movie name                  : The Croods A New Age 2020 from seleZen
Encoded date                : UTC 2021-02-24 19:08:42
Writing application         : mkvmerge v52.0.0 ('Secret For The Mad') 64-bit
Writing library             : libebml v1.4.1 + libmatroska v1.6.2

Video
ID                          : 1
Format                      : AVC
Format/Info                 : Advanced Video Codec
Format profile              : High@L4.1
Format settings             : CABAC / 12 Ref Frames
Format settings, CABAC      : Yes
Format settings, Reference  : 12 frames
Codec ID                    : V_MPEG4/ISO/AVC
Duration                    : 1 h 35 min
Bit rate                    : 4 950 kb/s
Width                       : 1 280 pixels
Height                      : 544 pixels
Display aspect ratio        : 2.35:1
Frame rate mode             : Constant
Frame rate                  : 23.976 (24000/1001) FPS
Color space                 : YUV
Chroma subsampling          : 4:2:0
Bit depth                   : 8 bits
Scan type                   : Progressive
Bits/(Pixel*Frame)          : 0.297
Stream size                 : 3.29 GiB (79%)
Title                       : LoRD
Writing library             : x264 core 161 r3048 ->LoRD
Encoding settings           : cabac=1 / ref=12 / deblock=1:-3:-3 / analyse=0x3:0x133 / me=esa / subme=10 / psy=1 / psy_rd=1.00:0.00 / mixed_ref=1 / me_range=24 / chroma_me=1 / trellis=2 / 8x8dct=1 / cqm=0 / deadzone=21,11 / fast_pskip=0 / chroma_qp_offset=-2 / threads=12 / lookahead_threads=2 / sliced_threads=0 / nr=0 / decimate=0 / interlaced=0 / bluray_compat=0 / constrained_intra=0 / bframes=8 / b_pyramid=2 / b_adapt=2 / b_bias=0 / direct=3 / weightb=1 / open_gop=0 / weightp=2 / keyint=250 / keyint_min=23 / scenecut=40 / intra_refresh=0 / rc_lookahead=60 / rc=crf / mbtree=0 / crf=16.1 / qcomp=0.66 / qpmin=0 / qpmax=69 / qpstep=4 / vbv_maxrate=62500 / vbv_bufsize=78125 / crf_max=0.0 / nal_hrd=none / filler=0 / ip_ratio=1.20 / pb_ratio=1.20 / aq=3:0.99
Language                    : English
Default                     : Yes
Forced                      : No
Color range                 : Limited
Color primaries             : BT.709
Transfer characteristics    : BT.709
Matrix coefficients         : BT.709

Audio #1
ID                          : 2
Format                      : AC-3
Format/Info                 : Audio Coding 3
Commercial name             : Dolby Digital
Codec ID                    : A_AC3
Duration                    : 1 h 35 min
Bit rate mode               : Constant
Bit rate                    : 384 kb/s
Channel(s)                  : 6 channels
Channel layout              : L R C LFE Ls Rs
Sampling rate               : 48.0 kHz
Frame rate                  : 31.250 FPS (1536 SPF)
Compression mode            : Lossy
Stream size                 : 262 MiB (6%)
Title                       : Dub [iTunes]
Language                    : Russian
Service kind                : Complete Main
Default                     : Yes
Forced                      : Yes

Audio #2
ID                          : 3
Format                      : AC-3
Format/Info                 : Audio Coding 3
Commercial name             : Dolby Digital
Codec ID                    : A_AC3
Duration                    : 1 h 35 min
Bit rate mode               : Constant
Bit rate                    : 448 kb/s
Channel(s)                  : 6 channels
Channel layout              : L R C LFE Ls Rs
Sampling rate               : 48.0 kHz
Frame rate                  : 31.250 FPS (1536 SPF)
Compression mode            : Lossy
Stream size                 : 305 MiB (7%)
Title                       : MVO [HDRezka Studio]
Language                    : Russian
Service kind                : Complete Main
Default                     : No
Forced                      : No

Audio #3
ID                          : 4
Format                      : AC-3
Format/Info                 : Audio Coding 3
Commercial name             : Dolby Digital
Codec ID                    : A_AC3
Duration                    : 1 h 35 min
Bit rate mode               : Constant
Bit rate                    : 448 kb/s
Channel(s)                  : 6 channels
Channel layout              : L R C LFE Ls Rs
Sampling rate               : 48.0 kHz
Frame rate                  : 31.250 FPS (1536 SPF)
Compression mode            : Lossy
Stream size                 : 305 MiB (7%)
Title                       : Original
Language                    : English
Service kind                : Complete Main
Default                     : No
Forced                      : No

Text #1
ID                          : 5
Format                      : UTF-8
Codec ID                    : S_TEXT/UTF8
Codec ID/Info               : UTF-8 Plain Text
Duration                    : 14 min 34 s
Bit rate                    : 4 b/s
Count of elements           : 15
Stream size                 : 500 Bytes (0%)
Title                       : Forced
Language                    : Russian
Default                     : No
Forced                      : No

Text #2
ID                          : 6
Format                      : UTF-8
Codec ID                    : S_TEXT/UTF8
Codec ID/Info               : UTF-8 Plain Text
Duration                    : 1 h 26 min
Bit rate                    : 114 b/s
Count of elements           : 1692
Stream size                 : 72.4 KiB (0%)
Title                       : Full
Language                    : Russian
Default                     : No
Forced                      : No

Text #3
ID                          : 7
Format                      : UTF-8
Codec ID                    : S_TEXT/UTF8
Codec ID/Info               : UTF-8 Plain Text
Duration                    : 1 h 34 min
Bit rate                    : 70 b/s
Count of elements           : 1709
Stream size                 : 48.5 KiB (0%)
Title                       : Full
Language                    : English
Default                     : No
Forced                      : No

Text #4
ID                          : 8
Format                      : UTF-8
Codec ID                    : S_TEXT/UTF8
Codec ID/Info               : UTF-8 Plain Text
Duration                    : 1 h 34 min
Bit rate                    : 82 b/s
Count of elements           : 1997
Stream size                 : 57.0 KiB (0%)
Title                       : SDH
Language                    : English
Default                     : No
Forced                      : No

Menu
00:00:00.000                : en:Chapter 1
00:06:36.563                : en:Chapter 2
00:11:17.760                : en:Chapter 3
00:18:01.289                : en:Chapter 4
00:21:05.389                : en:Chapter 5
00:25:45.085                : en:Chapter 6
00:29:01.990                : en:Chapter 7
00:34:01.706                : en:Chapter 8
00:37:10.603                : en:Chapter 9
00:43:43.037                : en:Chapter 10
00:48:33.786                : en:Chapter 11
00:52:16.675                : en:Chapter 12
00:55:48.095                : en:Chapter 13
00:59:50.128                : en:Chapter 14
01:05:28.758                : en:Chapter 15
01:09:06.476                : en:Chapter 16
01:15:03.499                : en:Chapter 17
01:21:30.719                : en:Chapter 18
01:25:12.691                : en:Chapter 19
01:27:39.129                : en:Chapter 20



Скриншоты:
[+] Всего файлов в раздаче - 1:
The.Croods.A.New.Age.2020.BDRip.720p.seleZen.mkv4.15 GB

Показать еще раздачи по запросу семейка:
2021-03-31 U Семейка Крудс: Новоселье / The Croods: A New Age (2020) BDRip от MegaPeer | Лицензия 1.46 GB ↑ 82 ↓ 9
2021-03-31 U Семейка Крудс: Новоселье / The Croods: A New Age (2020) BDRip 720p от селезень | D, P | Лицензия 4.32 GB ↑ 32 ↓ 5
2021-03-30 U Семейка Крудс: Новоселье / The Croods: A New Age (2020) BDRip 1080p от селезень | D, P | Лицензия 10.73 GB ↑ 149 ↓ 8
2021-02-28 U Семейка Крудс: Новоселье / The Croods: A New Age (2020) BDRip 2160p | 4K | HDR | D, P | iTunes 11.54 GB ↑ 31 ↓ 16
2021-02-26 U Семейка Крудс: Новоселье / The Croods: A New Age (2020) BDRemux 1080p от селезень | D, P | iTunes 23.64 GB ↑ 73 ↓ 57
2021-02-26 U Семейка Крудс: Новоселье / The Croods: A New Age (2020) BDRip-AVC | iTunes 1.91 GB ↑ 67 ↓ 27
2021-02-26 U Семейка Крудс: Новоселье / The Croods: A New Age (2020) BDRip 1080p от Ash61 | 3D-Video | halfOU | iTunes 7.87 GB ↑ 96 ↓ 29

Отзывы
Зарегистрируйтесь чтобы добавить комментарий.
Загрузите программу
  uTorrent.exe
Обратная связь
Copyleft ©