↑↓torrent.by
Поиск
Логин: Регистрация
Пароль: Восстановить пароль

Семейка Крудс: Новоселье / The Croods: A New Age (2020) BDRip 1080p от Ash61 | 3D-Video | halfOU | iTunes

Скачать semeyka-kruds-novosele-the-croods-a-new-age-2020-bdrip-1080p-ot-ash61-3d-video-halfou-itunes.torrent
U Магнитная ссылка Размер: 7.87 GB Раздают: 96 Качают: 29 Добавлен: 2021-02-26 04:12:01
Семейка Крудс: Новоселье / The Croods: A New Age (2020) BDRip 1080p от Ash61 | 3D-Video | halfOU | iTunes

Семейка Крудс: Новоселье
The Croods: A New Age
«Когда пришли в светлое будущее, а там... уже кто-то живет»


Год выпуска: 2020
Страна: США (DreamWorks Animation)
Жанр:  мультфильм, фэнтези, комедия, приключения, семейный
Продолжительность: 01:35:15

Перевод: Профессиональный дублированный - iTunes

Режиссер: Джоэль Кроуфорд / Joel Crawford

Роли озвучивали (дублировали):

       .............

Grug - Николас Кейдж (Юрий Брежнев)
Eep - Эмма Стоун (Нюша Шурочкина)
Guy - Райан Рейнольдс (Егор Дружинин)
Ugga - Кэтрин Кинер (Татьяна Шитова)
Gran - Клорис Личмен (Ирина Савина)
Thunk - Кларк Дьюк (Даниил Эльдаров)
Hope Betterman - Лесли Манн (Ляйсан Утяшева)
Phil Betterman - Питер Динклэйдж (Павел Воля)
Dawn Betterman - Келли Мари Трэн (Таисия Тришина)
Sandy - Кайли Кроуфорд (Ярослава Туранская)
Belt - Крис Сандерс


Описание: Такие харизматичные герои как члены клана Крудс просто не в силах усидеть на месте. Они смело идут навстречу самым головокружительным приключениям и готовы ответить непредсказуемостью и находчивостью на любой вызов судьбы.

Премьера: 25 ноября 2020 (24 декабря 2020)
Бюджет: $65 000 000
Кассовые сборы: $154 028 205


Качество: BDRip (by Ash61)
Контейнер: MKV
Формат 3D: Half OverUnder / Вертикальная анаморфная стереопара
Порядок ракурсов: левый ракурс первый

Видео: AVC / 1920х1080p / 23,976 fps / 11.0 Mbps

Аудио:
#1 - Русский / AC3 / 48 KHz / 5.1 ch / 384 Kbps (Дубляж - iTunes)
#2 - English / AC3 / 48 KHz / 5.1 ch / 448 Kbps (Original - BD 3D)

Субтитры (SRT):
Вшитые (softsub):
#1 - Русские Форсированные (включены по умолчанию)
#2 - Русские Полные
#3 - English Full
#4 - English SDH (BD 3D)

Внешние (UTF-8):
#1 - Русские Форсированные (включены по умолчанию)
#2 - Русские Полные

Каталог фильмов, выходивших в 3Д, со ссылками (вер. 28.01.2020)

О форматах и методах просмотра 3D


[+] MediaInfo
General
Unique ID                   : 209622975634505658244105395364247733796 (0x9DB3EAA506CAC917BF333F772A858624)
Complete name               : D:TheCroods.ANewAge(2020)3D-hOU(Ash61)iTunesTheCroods.ANewAge(2020)3D-hOU(Ash61)iTunes.mkv
Format                      : Matroska
Format version              : Version 2
File size                   : 7.87 GiB
Duration                    : 1 h 35 min
Overall bit rate            : 11.8 Mb/s
Movie name                  : Семейка Крудс: Новоселье / The Croods: A New Age (2020) in 3D
Encoded date                : UTC 2021-02-24 20:50:05
Writing application         : mkvmerge v5.8.0 ('No Sleep / Pillow') built on Sep  2 2012 15:37:04
Writing library             : libebml v1.2.3 + libmatroska v1.3.0

Video
ID                          : 1
Format                      : AVC
Format/Info                 : Advanced Video Codec
Format profile              : High@L4.1
Format settings             : CABAC / 4 Ref Frames
Format settings, CABAC      : Yes
Format settings, Reference  : 4 frames
Codec ID                    : V_MPEG4/ISO/AVC
Duration                    : 1 h 35 min
Bit rate                    : 11.0 Mb/s
Width                       : 1 920 pixels
Height                      : 1 080 pixels
Display aspect ratio        : 16:9
Frame rate mode             : Constant
Frame rate                  : 23.976 (24000/1001) FPS
Color space                 : YUV
Chroma subsampling          : 4:2:0
Bit depth                   : 8 bits
Scan type                   : Progressive
Bits/(Pixel*Frame)          : 0.221
Stream size                 : 7.16 GiB (91%)
Title                       : BDRip by Ash61
Writing library             : x264 core 146 r2538 121396c
Encoding settings           : cabac=1 / ref=4 / deblock=1:-3:-3 / analyse=0x3:0x113 / me=umh / subme=10 / psy=1 / psy_rd=1.00:0.00 / mixed_ref=1 / me_range=32 / chroma_me=1 / trellis=2 / 8x8dct=1 / cqm=0 / deadzone=21,11 / fast_pskip=0 / chroma_qp_offset=-2 / threads=12 / lookahead_threads=3 / sliced_threads=0 / nr=0 / decimate=0 / interlaced=0 / bluray_compat=0 / constrained_intra=0 / bframes=10 / b_pyramid=2 / b_adapt=2 / b_bias=0 / direct=3 / weightb=1 / open_gop=0 / weightp=2 / keyint=250 / keyint_min=23 / scenecut=40 / intra_refresh=0 / rc_lookahead=60 / rc=2pass / mbtree=0 / bitrate=11000 / ratetol=1.0 / qcomp=0.70 / qpmin=0 / qpmax=69 / qpstep=4 / cplxblur=20.0 / qblur=0.5 / vbv_maxrate=40000 / vbv_bufsize=30000 / nal_hrd=none / filler=0 / frame-packing=4 / ip_ratio=1.40 / pb_ratio=1.30 / aq=1:0.70
Language                    : English
Default                     : Yes
Forced                      : No

Audio #1
ID                          : 2
Format                      : AC-3
Format/Info                 : Audio Coding 3
Commercial name             : Dolby Digital
Codec ID                    : A_AC3
Duration                    : 1 h 35 min
Bit rate mode               : Constant
Bit rate                    : 384 kb/s
Channel(s)                  : 6 channels
Channel layout              : L R C LFE Ls Rs
Sampling rate               : 48.0 kHz
Frame rate                  : 31.250 FPS (1536 SPF)
Compression mode            : Lossy
Stream size                 : 262 MiB (3%)
Title                       : Дубляж (iTunes)
Language                    : Russian
Service kind                : Complete Main
Default                     : Yes
Forced                      : No

Audio #2
ID                          : 3
Format                      : AC-3
Format/Info                 : Audio Coding 3
Commercial name             : Dolby Digital
Codec ID                    : A_AC3
Duration                    : 1 h 35 min
Bit rate mode               : Constant
Bit rate                    : 448 kb/s
Channel(s)                  : 6 channels
Channel layout              : L R C LFE Ls Rs
Sampling rate               : 48.0 kHz
Frame rate                  : 31.250 FPS (1536 SPF)
Compression mode            : Lossy
Stream size                 : 305 MiB (4%)
Title                       : Original (BD 3D)
Language                    : English
Service kind                : Complete Main
Default                     : No
Forced                      : No

Text #1
ID                          : 4
Format                      : UTF-8
Codec ID                    : S_TEXT/UTF8
Codec ID/Info               : UTF-8 Plain Text
Title                       : Форсированные
Language                    : Russian
Default                     : Yes
Forced                      : No

Text #2
ID                          : 5
Format                      : UTF-8
Codec ID                    : S_TEXT/UTF8
Codec ID/Info               : UTF-8 Plain Text
Title                       : Полные
Language                    : Russian
Default                     : No
Forced                      : No

Text #3
ID                          : 6
Format                      : UTF-8
Codec ID                    : S_TEXT/UTF8
Codec ID/Info               : UTF-8 Plain Text
Title                       : Full
Language                    : English
Default                     : No
Forced                      : No

Text #4
ID                          : 7
Format                      : UTF-8
Codec ID                    : S_TEXT/UTF8
Codec ID/Info               : UTF-8 Plain Text
Title                       : SDH (BD 3D)
Language                    : English
Default                     : No
Forced                      : No

Menu
00:00:00.000                : :1
00:06:36.563                : :2
00:11:17.760                : :3
00:18:01.289                : :4
00:21:05.389                : :5
00:25:45.085                : :6
00:29:01.990                : :7
00:34:01.706                : :8
00:37:10.603                : :9
00:43:43.037                : :10
00:48:33.786                : :11
00:52:16.675                : :12
00:55:48.095                : :13
00:59:50.128                : :14
01:05:28.758                : :15
01:09:06.476                : :16
01:15:03.499                : :17
01:21:30.719                : :18
01:25:12.691                : :19
01:27:39.129                : :20



[+] Для оценки 3Д - Анимированные скрины

















Скриншоты:
[+] Всего файлов в раздаче - 3:
TheCroods.ANewAge(2020)3D-hOU(Ash61)iTunes.mkv7.87 GB
TheCroods.ANewAge(2020)3D-hOU(Ash61)iTunes.srt1.06 kB
TheCroods.ANewAge(2020)Субтитры.Русские.Полные.srt139.08 kB

Показать еще раздачи по запросу семейка:
2021-03-31 U Семейка Крудс: Новоселье / The Croods: A New Age (2020) BDRip от MegaPeer | Лицензия 1.46 GB ↑ 82 ↓ 9
2021-03-31 U Семейка Крудс: Новоселье / The Croods: A New Age (2020) BDRip 720p от селезень | D, P | Лицензия 4.32 GB ↑ 32 ↓ 5
2021-03-30 U Семейка Крудс: Новоселье / The Croods: A New Age (2020) BDRip 1080p от селезень | D, P | Лицензия 10.73 GB ↑ 149 ↓ 8
2021-02-28 U Семейка Крудс: Новоселье / The Croods: A New Age (2020) BDRip 2160p | 4K | HDR | D, P | iTunes 11.54 GB ↑ 31 ↓ 16
2021-02-26 U Семейка Крудс: Новоселье / The Croods: A New Age (2020) BDRemux 1080p от селезень | D, P | iTunes 23.64 GB ↑ 73 ↓ 57
2021-02-26 U Семейка Крудс: Новоселье / The Croods: A New Age (2020) BDRip-AVC | iTunes 1.91 GB ↑ 67 ↓ 27
2021-02-25 U Семейка Крудс: Новоселье / The Croods: A New Age (2020) BDRip от MegaPeer | iTunes 1.42 GB ↑ 175 ↓ 76

Отзывы
Зарегистрируйтесь чтобы добавить комментарий.
Загрузите программу
  uTorrent.exe
Обратная связь
Copyleft ©