↑↓torrent.by
Поиск
Логин: Регистрация
Пароль: Восстановить пароль

Мажор. Фильм (2021) WEB-DLRip-AVC от ExKinoRay | Расширенная версия

Скачать mazhor-film-2021-web-dlrip-avc-ot-exkinoray-rasshirennaya-versiya.torrent
U Магнитная ссылка Размер: 1.45 GB Раздают: 165 Качают: 39 Добавлен: 2021-02-26 17:59:57
Мажор. Фильм (2021) WEB-DLRip-AVC от ExKinoRay | Расширенная версия

Название: Мажор. Фильм
Год выхода: 2021
Жанр: Боевик, комедия
Режиссер: Максим Полинский, Николай Булыгин
В ролях: Павел Прилучный, Евгений Стычкин, Агния Дитковските, Дарина Эрвин, Даниил Воробьев, Владимир Селезнев, Дмитрий Шевченко, Александр Обласов, Игорь Жижикин, Павел Чинарёв

Описание:   Мажор виртуозно сбегает из тюрьмы и начинает новую жизнь. Новую сладкую жизнь! Соколовский вливается в светскую тусовку, где все сидят на новом синтетическом наркотике, и его снова окружают тачки, виллы и топ-модели. Друзья, враги и ФСБ идут по следу Мажора, пытаясь понять, какую игру он затеял и на чьей он стороне. Игорь же пытается понять, кто он сам — предатель, святой или всё тот же… Мажор?

Страна: Россия
Студия: Продюсерская компания «Среда»
Продолжительность: 01:40:31
Перевод: Не требуется

Формат: MKV
Качество: WEB-DLRip-AVC [КиноПоиск HD (чистый видеоряд)]
Видео: MPEG-4 AVC, 720x302 (2.40:1), 24.000 fps, 1681 Kbps, 0.322 bit/pixel
Аудио : AC3, 48 kHz, 5.1 ch, ~384.00 kbps avg |
Субтитры: Русские (форс. вшитые, полные)

Релиз:

Автор релиза:


[+] ОтчетМедиаИнфо

General
Unique ID                                : 172498829440854592676071182367008081526 (0x81C610EBE05E58A98295A1203FD9C676)
Complete name                            : G:Magor.Film.2021.Extended.AVC.ExKinoRay.mkv
Format                                   : Matroska
Format version                           : Version 2
File size                                : 1.45 GiB
Duration                                 : 1 h 40 min
Overall bit rate                         : 2 065 kb/s
Movie name                               : Мажор. Фильм (2021) from ExKinoRay
Encoded date                             : UTC 2021-02-26 03:58:16
Writing application                      : mkvmerge v5.6.0 ('Kenya Kane') built on May 27 2012 16:44:04
Writing library                          : libebml v1.2.3 + libmatroska v1.3.0
Cover                                    : Yes
Attachments                              : cover.png

Video
ID                                       : 1
Format                                   : AVC
Format/Info                              : Advanced Video Codec
Format profile                           : High@L4.1
Format settings, CABAC                   : Yes
Format settings, ReFrames                : 12 frames
Codec ID                                 : V_MPEG4/ISO/AVC
Duration                                 : 1 h 40 min
Bit rate                                 : 1 681 kb/s
Width                                    : 720 pixels
Height                                   : 302 pixels
Display aspect ratio                     : 2.40:1
Frame rate mode                          : Constant
Frame rate                               : 24.000 FPS
Color space                              : YUV
Chroma subsampling                       : 4:2:0
Bit depth                                : 8 bits
Scan type                                : Progressive
Bits/(Pixel*Frame)                       : 0.322
Stream size                              : 1.15 GiB (79%)
Title                                    : Enigma
Writing library                          : x264 core 152 r2851 ba24899
Encoding settings                        : cabac=1 / ref=12 / deblock=1:-2:-2 / analyse=0x3:0x113 / me=umh / subme=10 / psy=1 / psy_rd=1.00:0.05 / mixed_ref=1 / me_range=32 / chroma_me=1 / trellis=2 / 8x8dct=1 / cqm=0 / deadzone=21,11 / fast_pskip=0 / chroma_qp_offset=-3 / threads=9 / lookahead_threads=2 / sliced_threads=0 / nr=0 / decimate=0 / interlaced=0 / bluray_compat=0 / constrained_intra=0 / bframes=10 / b_pyramid=2 / b_adapt=2 / b_bias=0 / direct=3 / weightb=1 / open_gop=0 / weightp=2 / keyint=240 / keyint_min=24 / scenecut=40 / intra_refresh=0 / rc=2pass / mbtree=0 / bitrate=1681 / ratetol=1.0 / qcomp=0.60 / qpmin=0 / qpmax=51 / qpstep=4 / cplxblur=20.0 / qblur=0.5 / ip_ratio=1.40 / pb_ratio=1.30 / aq=1:1.00
Default                                  : Yes
Forced                                   : No
Color range                              : Limited
Color primaries                          : BT.709
Transfer characteristics                 : BT.709
Matrix coefficients                      : BT.709

Audio
ID                                       : 2
Format                                   : AC-3
Format/Info                              : Audio Coding 3
Mode extension                           : CM (complete main)
Format settings, Endianness              : Big
Codec ID                                 : A_AC3
Duration                                 : 1 h 40 min
Bit rate mode                            : Constant
Bit rate                                 : 384 kb/s
Channel(s)                               : 6 channels
Channel positions                        : Front: L C R, Side: L R, LFE
Sampling rate                            : 48.0 kHz
Frame rate                               : 31.250 FPS (1536 spf)
Compression mode                         : Lossy
Stream size                              : 276 MiB (19%)
Language                                 : Russian
Default                                  : Yes
Forced                                   : No

Text
ID                                       : 3
Format                                   : UTF-8
Codec ID                                 : S_TEXT/UTF8
Codec ID/Info                            : UTF-8 Plain Text
Title                                    : Full
Language                                 : Russian
Default                                  : No
Forced                                   : No

Menu
00:00:00.000                             : en:Глава 01
00:07:00.000                             : en:Глава 02
00:14:00.000                             : en:Глава 03
00:21:00.000                             : en:Глава 04
00:28:00.000                             : en:Глава 05
00:35:00.000                             : en:Глава 06
00:42:00.000                             : en:Глава 07
00:49:00.000                             : en:Глава 08
00:56:00.000                             : en:Глава 09
01:03:00.000                             : en:Глава 10
01:10:00.000                             : en:Глава 11
01:17:00.000                             : en:Глава 12
01:26:00.000                             : en:Глава 13
01:33:00.000                             : en:Глава 14
01:40:00.000                             : en:Глава 15




Скриншоты:
[+] Всего файлов в раздаче - 1:
Magor.Film.2021.Extended.AVC.ExKinoRay.mkv1.45 GB

Показать еще раздачи по запросу мажор:
2021-01-06 U Мажор. Фильм (2021) WEB-DLRip от GeneralFilm 1.45 GB ↑ 69 ↓ 36
2021-01-06 U Мажор. Фильм (2021) WEB-DLRip от ExKinoRay 745.76 MB ↑ 100 ↓ 6
2021-01-05 U Мажор. Фильм (2021) WEB-DLRip от Generalfilm | КПК 375.12 MB ↑ 41 ↓ 9
2021-01-03 U Мажор. Фильм (2021) WEBRip 746.47 MB ↑ 309 ↓ 64
2021-01-03 U Мажор. Фильм (2021) WEB-DLRip 1.46 GB ↑ 482 ↓ 149
2021-01-03 U Мажор. Фильм (2021) WEB-DL 720p от ExKinoRay 2.29 GB ↑ 1008 ↓ 296
2021-01-03 U Мажор. Фильм (2021) WEB-DL 1080p 3.81 GB ↑ 549 ↓ 448

Отзывы
Зарегистрируйтесь чтобы добавить комментарий.
Загрузите программу
  uTorrent.exe
Обратная связь
Copyleft ©