↑↓torrent.by
Поиск
Логин: Регистрация
Пароль: Восстановить пароль

Семейка Крудс: Новоселье / The Croods: A New Age (2020) BDRip 2160p | 4K | HDR | D, P | iTunes

Скачать semeyka-kruds-novosele-the-croods-a-new-age-2020-bdrip-2160p-4k-hdr-d-p-itunes.torrent
U Магнитная ссылка Размер: 11.54 GB Раздают: 31 Качают: 16 Добавлен: 2021-02-28 01:22:23
Семейка Крудс: Новоселье / The Croods: A New Age (2020) BDRip 2160p | 4K | HDR | D, P | iTunes

Название: Семейка Крудс: Новоселье
Оригинальное название: The Croods: A New Age
Год выхода: 2020
Жанр: Мультфильм, фэнтези, комедия, приключения, семейный
Страна: США
Переводы:
#1 Дублированный | iTunes
#2 Профессиональный (многоголосый закадровый) | HDRezka Studio
Продолжительность: 01:35:14
Режиссер: Джоэль Кроуфорд
В ролях: Николас Кейдж, Эмма Стоун, Райан Рейнольдс, Кэтрин Кинер, Клорис Личмен, Кларк Дьюк, Лесли Манн, Питер Динклэйдж, Келли Мари Трэн, Кайли Кроуфорд и др.

О фильме: Такие харизматичные герои как члены клана Крудс просто не в силах усидеть на месте. Они смело идут навстречу самым головокружительным приключениям и готовы ответить непредсказуемостью и находчивостью на любой вызов судьбы.

Файл
Качество: BDRip 2160p | The.Croods.A.New.Age.2020.2160p.BluRay.REMUX.HEVC.DTS-HD.MA.TrueHD.7.1.Atmos-FGT
Видео: HEVC (x265), HDR, 3840x1632, 15900 kbps, 23,976 fps
Звук#1: русский, AC3, 5.1 ch, 48 kHz, 384 kbps | iTunes
Звук#2: русский, AC3, 5.1 ch, 48 kHz, 448 kbps | HDRezka Studio
Звук#3: английский, AC3, 5.1 ch, 48 kHz, 640 kbps | оригинал
Субтитры: русские (форс., полные), английские (полные)

Рип и релиз от:


[+] MI
General
Unique ID                      : 244989172932735702038410269775802734206 (0xB84F32CBAA3FF20DBB889BB62B65167E)
Complete name                  : F:TorrentSemejkaKrudsNovoseleBDRip2160p.mkv
Format                         : Matroska
Format version                 : Version 4
File size                      : 11.5 GiB
Duration                       : 1 h 35 min
Overall bit rate               : 17.4 Mb/s
Encoded date                   : UTC 2021-02-25 20:24:52
Writing application            : mkvmerge v9.5.0 ('Quiet Fire') 64bit
Writing library                : libebml v1.3.4 + libmatroska v1.4.5

Video
ID                             : 1
Format                         : HEVC
Format/Info                    : High Efficiency Video Coding
Format profile                 : Main 10@L5.1@High
HDR format                     : SMPTE ST 2086, HDR10 compatible
Codec ID                       : V_MPEGH/ISO/HEVC
Duration                       : 1 h 35 min
Bit rate                       : 15.9 Mb/s
Width                          : 3 840 pixels
Height                         : 1 632 pixels
Display aspect ratio           : 2.35:1
Frame rate mode                : Constant
Frame rate                     : 23.976 (24000/1001) FPS
Color space                    : YUV
Chroma subsampling             : 4:2:0
Bit depth                      : 10 bits
Bits/(Pixel*Frame)             : 0.106
Stream size                    : 10.6 GiB (92%)
Title                          : Sisendrovich(R)
Writing library                : x265 3.4+28-419182243:[Windows][clang 11.0.0][64 bit] 10bit
Encoding settings              : cpuid=1111039 / frame-threads=16 / numa-pools=24 / wpp / no-pmode / no-pme / no-psnr / no-ssim / log-level=3 / input-csp=1 / input-res=3840x1632 / interlace=0 / total-frames=0 / level-idc=51 / high-tier=1 / uhd-bd=0 / ref=5 / no-allow-non-conformance / repeat-headers / annexb / no-aud / no-hrd / info / hash=0 / no-temporal-layers / open-gop / min-keyint=23 / keyint=240 / gop-lookahead=0 / bframes=10 / b-adapt=2 / b-pyramid / bframe-bias=0 / rc-lookahead=60 / lookahead-slices=0 / scenecut=40 / hist-scenecut=0 / radl=0 / no-splice / no-intra-refresh / ctu=64 / min-cu-size=8 / rect / amp / max-tu-size=32 / tu-inter-depth=3 / tu-intra-depth=3 / limit-tu=0 / rdoq-level=2 / dynamic-rd=0.00 / no-ssim-rd / signhide / no-tskip / nr-intra=0 / nr-inter=0 / no-constrained-intra / no-strong-intra-smoothing / max-merge=5 / limit-refs=0 / limit-modes / me=3 / subme=7 / merange=57 / temporal-mvp / no-frame-dup / no-hme / weightp / weightb / no-analyze-src-pics / deblock=-1:-1 / no-sao / no-sao-non-deblock / rd=6 / selective-sao=0 / no-early-skip / no-rskip / no-fast-intra / no-tskip-fast / no-cu-lossless / no-b-intra / no-splitrd-skip / rdpenalty=0 / psy-rd=2.00 / psy-rdoq=1.00 / no-rd-refine / no-lossless / cbqpoffs=0 / crqpoffs=0 / rc=crf / crf=17.0 / qcomp=0.65 / qpstep=4 / stats-write=0 / stats-read=0 / vbv-maxrate=160000 / vbv-bufsize=160000 / vbv-init=0.9 / min-vbv-fullness=50.0 / max-vbv-fullness=80.0 / crf-max=0.0 / crf-min=0.0 / ipratio=1.40 / pbratio=1.30 / aq-mode=3 / aq-strength=0.80 / no-cutree / zone-count=0 / no-strict-cbr / qg-size=32 / no-rc-grain / qpmax=69 / qpmin=0 / no-const-vbv / sar=1 / overscan=0 / videoformat=5 / range=0 / colorprim=9 / transfer=16 / colormatrix=9 / chromaloc=0 / display-window=0 / master-display=G(13250,34500)B(7500,3000)R(34000,16000)WP(15635,16450)L(10000000,10) / cll=1000,999 / min-luma=0 / max-luma=1023 / log2-max-poc-lsb=8 / vui-timing-info / vui-hrd-info / slices=1 / no-opt-qp-pps / no-opt-ref-list-length-pps / no-multi-pass-opt-rps / scenecut-bias=0.05 / hist-threshold=0.03 / no-opt-cu-delta-qp / no-aq-motion / hdr10 / hdr10-opt / no-dhdr10-opt / no-idr-recovery-sei / analysis-reuse-level=0 / analysis-save-reuse-level=0 / analysis-load-reuse-level=0 / scale-factor=0 / refine-intra=0 / refine-inter=0 / refine-mv=1 / refine-ctu-distortion=0 / no-limit-sao / ctu-info=0 / no-lowpass-dct / refine-analysis-type=0 / copy-pic=1 / max-ausize-factor=1.0 / no-dynamic-refine / no-single-sei / no-hevc-aq / no-svt / no-field / qp-adaptation-range=1.00 / no-scenecut-aware-qpconformance-window-offsets / right=0 / bottom=0 / decoder-max-rate=0 / no-vbv-live-multi-pass
Language                       : English
Default                        : Yes
Forced                         : No
Color range                    : Limited
Color primaries                : BT.2020
Transfer characteristics       : PQ
Matrix coefficients            : BT.2020 non-constant
Mastering display color primar : Display P3
Mastering display luminance    : min: 0.0010 cd/m2, max: 1000 cd/m2
Maximum Content Light Level    : 1000 cd/m2
Maximum Frame-Average Light Le : 999 cd/m2

Audio #1
ID                             : 2
Format                         : AC-3
Format/Info                    : Audio Coding 3
Commercial name                : Dolby Digital
Codec ID                       : A_AC3
Duration                       : 1 h 35 min
Bit rate mode                  : Constant
Bit rate                       : 384 kb/s
Channel(s)                     : 6 channels
Channel layout                 : L R C LFE Ls Rs
Sampling rate                  : 48.0 kHz
Frame rate                     : 31.250 FPS (1536 SPF)
Compression mode               : Lossy
Stream size                    : 262 MiB (2%)
Title                          : rus iTunes
Language                       : Russian
Default                        : Yes
Forced                         : No

Audio #2
ID                             : 3
Format                         : AC-3
Format/Info                    : Audio Coding 3
Commercial name                : Dolby Digital
Codec ID                       : A_AC3
Duration                       : 1 h 35 min
Bit rate mode                  : Constant
Bit rate                       : 448 kb/s
Channel(s)                     : 6 channels
Channel layout                 : L R C LFE Ls Rs
Sampling rate                  : 48.0 kHz
Frame rate                     : 31.250 FPS (1536 SPF)
Compression mode               : Lossy
Stream size                    : 305 MiB (3%)
Title                          : HDRezka Stidio
Language                       : Russian
Default                        : No
Forced                         : No

Audio #3
ID                             : 4
Format                         : AC-3
Format/Info                    : Audio Coding 3
Commercial name                : Dolby Digital
Codec ID                       : A_AC3
Duration                       : 1 h 35 min
Bit rate mode                  : Constant
Bit rate                       : 640 kb/s
Channel(s)                     : 6 channels
Channel layout                 : L R C LFE Ls Rs
Sampling rate                  : 48.0 kHz
Frame rate                     : 31.250 FPS (1536 SPF)
Compression mode               : Lossy
Stream size                    : 436 MiB (4%)
Title                          : eng
Language                       : English
Default                        : No
Forced                         : No

Text #1
ID                             : 5
Format                         : UTF-8
Codec ID                       : S_TEXT/UTF8
Codec ID/Info                  : UTF-8 Plain Text
Duration                       : 14 min 34 s
Bit rate                       : 4 b/s
Count of elements              : 15
Stream size                    : 500 Bytes (0%)
Title                          : rusForced
Language                       : Russian
Default                        : Yes
Forced                         : No

Text #2
ID                             : 6
Format                         : UTF-8
Codec ID                       : S_TEXT/UTF8
Codec ID/Info                  : UTF-8 Plain Text
Duration                       : 1 h 26 min
Bit rate                       : 114 b/s
Count of elements              : 1692
Stream size                    : 72.4 KiB (0%)
Title                          : rusFull
Language                       : Russian
Default                        : No
Forced                         : No

Text #3
ID                             : 7
Format                         : UTF-8
Codec ID                       : S_TEXT/UTF8
Codec ID/Info                  : UTF-8 Plain Text
Duration                       : 1 h 34 min
Bit rate                       : 73 b/s
Count of elements              : 1718
Stream size                    : 50.8 KiB (0%)
Title                          : engFull
Language                       : English
Default                        : No
Forced                         : No

Menu
00:00:00.000                   : :Chapter 01
00:06:36.312                   : :Chapter 02
00:11:17.635                   : :Chapter 03
00:18:00.996                   : :Chapter 04
00:21:05.180                   : :Chapter 05
00:25:45.085                   : :Chapter 06
00:29:01.948                   : :Chapter 07
00:34:01.330                   : :Chapter 08
00:37:10.603                   : :Chapter 09
00:43:43.037                   : :Chapter 10
00:48:33.785                   : :Chapter 11
00:52:16.633                   : :Chapter 12
00:55:47.761                   : :Chapter 13
00:59:50.086                   : :Chapter 14
01:05:28.758                   : :Chapter 15
01:09:06.684                   : :Chapter 16
01:15:03.123                   : :Chapter 17
01:21:30.594                   : :Chapter 18
01:25:13.024                   : :Chapter 19
01:27:38.795                   : :Chapter 20



Скриншоты:
[+] Всего файлов в раздаче - 1:
SemejkaKrudsNovoseleBDRip2160p.mkv11.54 GB

Показать еще раздачи по запросу семейка:
2021-03-31 U Семейка Крудс: Новоселье / The Croods: A New Age (2020) BDRip от MegaPeer | Лицензия 1.46 GB ↑ 82 ↓ 9
2021-03-31 U Семейка Крудс: Новоселье / The Croods: A New Age (2020) BDRip 720p от селезень | D, P | Лицензия 4.32 GB ↑ 32 ↓ 5
2021-03-30 U Семейка Крудс: Новоселье / The Croods: A New Age (2020) BDRip 1080p от селезень | D, P | Лицензия 10.73 GB ↑ 149 ↓ 8
2021-02-26 U Семейка Крудс: Новоселье / The Croods: A New Age (2020) BDRemux 1080p от селезень | D, P | iTunes 23.64 GB ↑ 73 ↓ 57
2021-02-26 U Семейка Крудс: Новоселье / The Croods: A New Age (2020) BDRip-AVC | iTunes 1.91 GB ↑ 67 ↓ 27
2021-02-26 U Семейка Крудс: Новоселье / The Croods: A New Age (2020) BDRip 1080p от Ash61 | 3D-Video | halfOU | iTunes 7.87 GB ↑ 96 ↓ 29
2021-02-25 U Семейка Крудс: Новоселье / The Croods: A New Age (2020) BDRip от MegaPeer | iTunes 1.42 GB ↑ 175 ↓ 76

Отзывы
Зарегистрируйтесь чтобы добавить комментарий.
Загрузите программу
  uTorrent.exe
Обратная связь
Copyleft ©