↑↓torrent.by
Поиск
Логин: Регистрация
Пароль: Восстановить пароль

Тихоокеанский рубеж: Тёмная зона / Pacific Rim: The Black [S01] (2021) WEB-DL 1080 | Flarrow Films

Скачать tihookeanskiy-rubezh-temnaya-zona-pacific-rim-the-black-s01-2021-web-dl-1080-flarrow-films.torrent
U Магнитная ссылка Размер: 5.32 GB Раздают: 130 Качают: 51 Добавлен: 2021-03-08 18:38:40
Тихоокеанский рубеж: Тёмная зона / Pacific Rim: The Black [S01] (2021) WEB-DL 1080 | Flarrow Films

Название: Тихоокеанский рубеж: Тёмная зона
Оригинальное название: Pacific Rim: The Black
Год выхода: 2021
Жанр: мультфильм, фантастика, боевик
Режиссер: Грег Джонсон, Крэйг Кайл
В ролях: Гидеон Адлон, Виктория Грейс, Эндрю Мак-Фи, Кэлум Уорти, Эрика Линдбек

О фильме:
Давным-давно из морских пучин восстали гигантские чудовища, но встретили сопротивление егерей — специально разработанных роботов. Время прошло. Теперь монстры наводнили Австралию, и жителям всего континента приходится эвакуироваться. Два подростка — брат с сестрой Тейлор и Хейли — остались, чтобы найти пропавших родителей. Они обнаруживают старого егеря и учатся управлять им, надеясь, что это поможет им найти родителей и выжить.

Страна: США, Австралия
Продолжительность: 00:28:32 (серия)
Перевод: Профессиональный (многоголосый, закадровый) | Flarrow Films

Роли озвучивали: Ахилл Намазов, Рина Чернышова, Дмитрий Бугаков, Рута Новикова, Алина Лихачева и Семён Евсиков

Файл
Формат: MKV
Кодек: MPEG-4 AVC
Качество: WEB-DL 1080
Видео: 1920х1080, ~5 620 kb/s, 23.976, 8 bits
Звук: AC-3, 320 kb/s, 2 channels, 48.0 kHz
Субтитры: русские (отключаемые)

Релиз от: Flarrow Films
Примечание: Без интро Flarrow Films


[+] MediaInfo


General
Unique ID                   : 293048904930708206920581241271830300575 (0xDC772A86AEC12FCC5202478C385DC79F)
Complete name               : C:FlarrowPacific.Rim.The.Black.S01.1080p.Flarrow.FilmsPacific.Rim.The.Black.S01E01.mkv
Format                      : Matroska
Format version              : Version 4
File size                   : 1.14 GiB
Duration                    : 28 min 34 s
Overall bit rate mode       : Variable
Overall bit rate            : 5 705 kb/s
Encoded date                : UTC 2021-03-05 18:45:31
Writing application         : mkvmerge v32.0.0 ('Astral Progressions') 64-bit
Writing library             : libebml v1.3.7 + libmatroska v1.5.0
Cover                       : Yes
Attachments                 : small_cover.jpg / small_cover_land.jpg / cover.jpg / cover_land.jpg

Video
ID                          : 1
Format                      : AVC
Format/Info                 : Advanced Video Codec
Format profile              : Main@L4
Format settings             : CABAC / 3 Ref Frames
Format settings, CABAC      : Yes
Format settings, Reference  : 3 frames
Codec ID                    : V_MPEG4/ISO/AVC
Duration                    : 28 min 32 s
Bit rate mode               : Variable
Bit rate                    : 5 620 kb/s
Maximum bit rate            : 8 430 kb/s
Width                       : 1 920 pixels
Height                      : 1 080 pixels
Display aspect ratio        : 16:9
Frame rate mode             : Constant
Frame rate                  : 23.976 (24000/1001) FPS
Color space                 : YUV
Chroma subsampling          : 4:2:0
Bit depth                   : 8 bits
Scan type                   : Progressive
Bits/(Pixel*Frame)          : 0.113
Stream size                 : 1.07 GiB (94%)
Writing library             : x264 core 148 r2722 1b0121b
Encoding settings           : cabac=1 / ref=3 / deblock=1:0:0 / analyse=0x1:0x111 / me=umh / subme=10 / psy=1 / psy_rd=1.00:0.00 / mixed_ref=1 / me_range=24 / chroma_me=1 / trellis=2 / 8x8dct=0 / cqm=0 / deadzone=21,11 / fast_pskip=1 / chroma_qp_offset=-2 / threads=8 / lookahead_threads=1 / sliced_threads=0 / nr=0 / decimate=1 / interlaced=0 / bluray_compat=0 / stitchable=1 / constrained_intra=0 / bframes=2 / b_pyramid=0 / b_adapt=2 / b_bias=0 / direct=3 / weightb=1 / open_gop=0 / weightp=2 / keyint=250 / keyint_min=23 / scenecut=0 / intra_refresh=0 / rc_lookahead=48 / rc=2pass / mbtree=1 / bitrate=5620 / ratetol=1.0 / qcomp=0.50 / qpmin=6 / qpmax=51 / qpstep=4 / cplxblur=20.0 / qblur=0.5 / vbv_maxrate=8430 / vbv_bufsize=11240 / nal_hrd=vbr / filler=0 / ip_ratio=1.40 / aq=1:1.00
Default                     : Yes
Forced                      : No

Audio
ID                          : 2
Format                      : AC-3
Format/Info                 : Audio Coding 3
Commercial name             : Dolby Digital
Codec ID                    : A_AC3
Duration                    : 28 min 34 s
Bit rate mode               : Constant
Bit rate                    : 320 kb/s
Channel(s)                  : 2 channels
Channel layout              : L R
Sampling rate               : 44.1 kHz
Frame rate                  : 28.711 FPS (1536 SPF)
Compression mode            : Lossy
Stream size                 : 65.4 MiB (6%)
Language                    : Russian
Service kind                : Complete Main
Default                     : Yes
Forced                      : No

Text
ID                          : 3
Format                      : UTF-8
Codec ID                    : S_TEXT/UTF8
Codec ID/Info               : UTF-8 Plain Text
Duration                    : 27 min 26 s
Bit rate                    : 77 b/s
Count of elements           : 318
Stream size                 : 15.5 KiB (0%)
Language                    : Russian
Default                     : Yes
Forced                      : No




Скриншоты:
[+] Всего файлов в раздаче - 7:
Pacific.Rim.The.Black.S01E05.mkv565.79 MB
Pacific.Rim.The.Black.S01E07.mkv646.36 MB
Pacific.Rim.The.Black.S01E02.mkv651.13 MB
Pacific.Rim.The.Black.S01E06.mkv677.61 MB
Pacific.Rim.The.Black.S01E03.mkv707.00 MB
Pacific.Rim.The.Black.S01E04.mkv1.01 GB
Pacific.Rim.The.Black.S01E01.mkv1.14 GB

Похожие раздачи по запросу - тихоокеанский:
2021-03-05 U Тихоокеанский рубеж: Тёмная зона / Pacific Rim: The Black [S01] (2021) WEB-DL 1080p | SUB 4.05 GB ↑ 41 ↓ 12
2018-07-19 U Тихоокеанский рубеж 2 / Pacific Rim: Uprising (2018) BDRip 1080p | D, P | Лицензия 13.66 GB ↑ 487 ↓ 156
2018-04-29 U Тихоокеанский рубеж 2 / Pacific Rim: Uprising (2018) WEBRip-AVC | HDrezka Studio 745.94 MB ↑ 1106 ↓ 51

Отзывы
Зарегистрируйтесь чтобы добавить комментарий.
Загрузите программу
  uTorrent.exe
Обратная связь
Copyleft ©