↑↓torrent.by
Поиск
Логин: Регистрация
Пароль: Восстановить пароль

История о пареньке из деревни, расположенной перед сложнейшим подземельем / Tatoeba Last Dungeon Mae no Mura no Shounen ga Joban no Machi de Kurasu Youna Monogatari [S01] (2021) WEBRip 1080p | StudioBand

Скачать istoriya-o-parenke-iz-derevni-raspolozhennoy-pered-slozhneyshim-podzemelem-tatoeba-last-dungeon-mae-no-mura-shounen-ga-joban-machi-de-kurasu-youna-monogatari-s01-2021-webrip-1080p-studioband.torrent
U Магнитная ссылка Размер: 14.98 GB Раздают: 27 Качают: 7 Добавлен: 2021-03-24 06:09:43
История о пареньке из деревни, расположенной перед сложнейшим подземельем / Tatoeba Last Dungeon Mae no Mura no Shounen ga Joban no Machi de Kurasu Youna Monogatari [S01] (2021) WEBRip 1080p | StudioBand

Название: История о пареньке из деревни, расположенной перед сложнейшим подземельем
Оригинальное название: Tatoeba Last Dungeon Mae no Mura no Shounen ga Joban no Machi de Kurasu Youna Monogatari
Английское название: Suppose a Kid from the Last Dungeon Boonies moved to a starter town?
Год выхода: 2021
Жанр: приключения, фэнтези
Режиссер: Мигми

О фильме:
Ллойд — начинающий искатель приключений, у которого, однако, есть большая мечта. Он стремится обрести истинную силу, а для этого надо добраться до столицы. И пускай все соседи и знакомые считают его замухрышкой, Ллойда это не останавливает, и он покидает родную деревню, которая по странному совпадению располагается рядышком с одним из самых опасных подземелий в мире. Ллойд, считающий себя слабаком, прибывает наконец в городок, где есть другие искатели приключений, и вдруг обнаруживает, что разница в силе намного значительнее, чем он предполагал. © Shikimori

Страна: Япония
Продолжительность: ~00:24:00 (серия)
Перевод: Профессиональный (многоголосый, закадровый) | StudioBand [Wakanim]

Файл
Формат: MKV
Кодек: MPEG-4 AVC
Качество: WEBRip 1080p
Видео: 1920x1080, ~ 6 846 kb/s, 23.976 FPS. 8 bits
Аудио (русский): AAC LC, 320 kb/s, 2 channels, 48.0 kHz
Субтитры: русские (вшитые, на надписи)

Релиз:

22.03.2021 обновлено. Добавлена 12 серия. Сезон окончен.


[+] MediaInfo

General
Unique ID                   : 181187923966534391154531860835896575010 (0x884F865B7219524DD705FD9A8016C422)
Complete name               : [KORSARS]_Tatoeba.Last.Dungeon.Mae.no.Mura.[S01E01].WEBRip.1080p._[StudioBand].mkv
Format                      : Matroska
Format version              : Version 4
File size                   : 1.18 GiB
Duration                    : 23 min 39 s
Overall bit rate            : 7 168 kb/s
Movie name                  : [KORSARS]_Tatoeba.Last.Dungeon.Mae.no.Mura.[S01E01].WEBRip.1080p._[StudioBand]
Encoded date                : UTC 2021-01-04 14:37:50
Writing application         : mkvmerge v51.0.0 ('I Wish') 64-bit
Writing library             : libebml v1.4.0 + libmatroska v1.6.2

Video
ID                          : 1
Format                      : AVC
Format/Info                 : Advanced Video Codec
Format profile              : High@L4.1
Format settings             : CABAC / 4 Ref Frames
Format settings, CABAC      : Yes
Format settings, Reference  : 4 frames
Codec ID                    : V_MPEG4/ISO/AVC
Duration                    : 23 min 39 s
Bit rate                    : 6 846 kb/s
Width                       : 1 920 pixels
Height                      : 1 080 pixels
Display aspect ratio        : 16:9
Frame rate mode             : Constant
Frame rate                  : 23.976 (24000/1001) FPS
Color space                 : YUV
Chroma subsampling          : 4:2:0
Bit depth                   : 8 bits
Scan type                   : Progressive
Bits/(Pixel*Frame)          : 0.138
Stream size                 : 1.13 GiB (96%)
Title                       : [KORSARS]_Tatoeba.Last.Dungeon.Mae.no.Mura.[S01E01].WEBRip.1080p._[StudioBand]
Writing library             : x264 core 155 r2901 7d0ff22
Encoding settings           : cabac=1 / ref=4 / deblock=1:1:1 / analyse=0x3:0x133 / me=umh / subme=10 / psy=1 / psy_rd=0.40:0.00 / mixed_ref=1 / me_range=24 / chroma_me=1 / trellis=2 / 8x8dct=1 / cqm=0 / deadzone=21,11 / fast_pskip=1 / chroma_qp_offset=-2 / threads=24 / lookahead_threads=6 / sliced_threads=0 / nr=0 / decimate=1 / interlaced=0 / bluray_compat=0 / constrained_intra=0 / bframes=10 / b_pyramid=2 / b_adapt=2 / b_bias=0 / direct=3 / weightb=1 / open_gop=0 / weightp=2 / keyint=250 / keyint_min=23 / scenecut=40 / intra_refresh=0 / rc_lookahead=60 / rc=crf / mbtree=1 / crf=11.0 / qcomp=0.60 / qpmin=0 / qpmax=69 / qpstep=4 / ip_ratio=1.40 / aq=1:0.60
Default                     : Yes
Forced                      : No

Audio
ID                          : 2
Format                      : AAC LC
Format/Info                 : Advanced Audio Codec Low Complexity
Codec ID                    : A_AAC-2
Duration                    : 23 min 39 s
Bit rate                    : 320 kb/s
Channel(s)                  : 2 channels
Channel layout              : L R
Sampling rate               : 48.0 kHz
Frame rate                  : 46.875 FPS (1024 SPF)
Compression mode            : Lossy
Delay relative to video     : -21 ms
Stream size                 : 54.1 MiB (4%)
Title                       : [KORSARS]_Tatoeba.Last.Dungeon.Mae.no.Mura.[S01E01].WEBRip.1080p._[StudioBand]
Language                    : Russian
Default                     : Yes
Forced                      : No



Скриншоты:
[+] Всего файлов в раздаче - 12:
[KORSARS]_Tatoeba.Last.Dungeon.Mae.no.Mura.[S01E07].WEBRip.1080p._[StudioBand].mkv948.54 MB
[KORSARS]_Tatoeba.Last.Dungeon.Mae.no.Mura.[S01E05].WEBRip.1080p._[StudioBand].mkv970.47 MB
[KORSARS]_Tatoeba.Last.Dungeon.Mae.no.Mura.[S01E11].WEBRip.1080p._[StudioBand].mkv1.17 GB
[KORSARS]_Tatoeba.Last.Dungeon.Mae.no.Mura.[S01E01].WEBRip.1080p._[StudioBand].mkv1.18 GB
[KORSARS]_Tatoeba.Last.Dungeon.Mae.no.Mura.[S01E06].WEBRip.1080p._[StudioBand].mkv1.21 GB
[KORSARS]_Tatoeba.Last.Dungeon.Mae.no.Mura.[S01E03].WEBRip.1080p._[StudioBand].mkv1.28 GB
[KORSARS]_Tatoeba.Last.Dungeon.Mae.no.Mura.[S01E04].WEBRip.1080p._[StudioBand].mkv1.30 GB
[KORSARS]_Tatoeba.Last.Dungeon.Mae.no.Mura.[S01E02].WEBRip.1080p._[StudioBand].mkv1.31 GB
[KORSARS]_Tatoeba.Last.Dungeon.Mae.no.Mura.[S01E10].WEBRip.1080p._[StudioBand].mkv1.38 GB
[KORSARS]_Tatoeba.Last.Dungeon.Mae.no.Mura.[S01E09].WEBRip.1080p._[StudioBand].mkv1.40 GB
[KORSARS]_Tatoeba.Last.Dungeon.Mae.no.Mura.[S01E12].WEBRip.1080p._[StudioBand].mkv1.40 GB
[KORSARS]_Tatoeba.Last.Dungeon.Mae.no.Mura.[S01E08].WEBRip.1080p._[StudioBand].mkv1.47 GB

Показать еще раздачи по запросу история:
Сегодня U Как я стал гангстером. Правдивая история / Jak zostalem gangsterem. Historia prawdziwa (2019) WEB-DLRip | L 1.47 GB ↑ 102 ↓ 16
Вчера U Как я стал гангстером. Правдивая история / Jak zostalem gangsterem. Historia prawdziwa (2019) WEB-DL 1080p | L 6.44 GB ↑ 22 ↓ 16
2021-04-07 U Борис Акунин - История Российского государства: Лекарство для империи (2021) МР3 279.95 MB ↑ 130 ↓ 17
2021-02-26 U Потерянные: Голливудская история / Girl Lost: A Hollywood Story (2020) WEB-DLRip-AVC | L 744.65 MB ↑ 62 ↓ 13
2021-02-22 U Н.Л.О.: истинная история летающих тарелок / Unidentified Flying Objects: The True Story of Flying Saucers (1956) VHSRip | L1 333.67 MB ↑ 35 ↓ 15
2021-02-14 U Книжная серия - История в одном томе [29 книг] (2011-2021) FB2, PDF 1К258.21 MB ↑ 183 ↓ 41
2021-01-24 U BBC: Персы: История Ирана / The Persians: A History of Iran / Art of Persia [01-03 из 03] (2020) SATRip-AVC | P2 1.94 GB ↑ 123 ↓ 36

Отзывы
Зарегистрируйтесь чтобы добавить комментарий.
Загрузите программу
  uTorrent.exe
Обратная связь
Copyleft ©