↑↓torrent.by
Поиск
Логин: Регистрация
Пароль: Восстановить пароль

Повелитель драконов / Dragon Rider (2020) BDRip 1080p от селезень | iTunes

Скачать povelitel-drakonov-dragon-rider-2020-bdrip-1080p-ot-selezen-itunes.torrent
U Магнитная ссылка Размер: 6.57 GB Раздают: 70 Качают: 45 Добавлен: 2021-03-25 06:17:28
Повелитель драконов / Dragon Rider (2020) BDRip 1080p от селезень | iTunes

Название: Повелитель драконов
Оригинальное название: Dragon Rider
Год выхода: 2020
Жанр: Мультфильм, приключения, семейный, экранизация, полнометражный
Режиссер: Томер Ешед
В ролях: Фелисити Джонс, Фредди Хаймор, Патрик Стюарт, Томас Броди-Сэнгстер, Нонсо Анози, Санджив Бхаскар, Мира Сайал, Стивен Хоган, Джамика Джонс, Дэвид Брукс

О фильме: Когда-то драконы властвовали на Земле, но в наши дни их можно встретить только в кино. Однако молодой дракон, пробираясь сквозь небоскребы мегаполисов и уклоняясь от взоров вечно спешащих людей, мечтает добраться до мест, где по легендам могучие рептилии живут в спокойствии и безопасности. Об этом он просит одного незадачливого паренька, который, как и все мы, даже не подозревал, что драконы реальные и очень даже милые существа. Вместе они отправятся в путешествие по самым таинственным уголкам Земли, а юноше придется постараться, ведь спасти драконий род может только истинный повелитель драконов!

Страна: Германия
Студия: Constantin Film, Able & Baker, Cyborn
Продолжительность: 01:31:24
Перевод: Дублированный | iTunes

Качество: BDRip 1080p
Видео: MPEG-4 AVC, 1920x804, 8888 Kbit/s, 23.976 fps
Аудио #01: 48 kHz, AC3, 5.1, 384 Kbps | Дублированный | RUS |
Аудио #02: 48 kHz, AC3, 5.1, 384 Kbps | Дублированный | UKR |
Аудио #03: 48 kHz, AC3, 5.1, 640 Kbps | Оригинал | ENG |
Субтитры: Отсутсвуют

Релиз: Присоединяйся к:


[+] MI
General
Unique ID                   : 253617178678167794169913288412753470883 (0xBECCE4526D31817268B39663EFEAA5A3)
Complete name               : F:VideoDragon.Rider.2020.BDRip.1080p.seleZen.mkv
Format                      : Matroska
Format version              : Version 4
File size                   : 6.57 GiB
Duration                    : 1 h 31 min
Overall bit rate            : 10.3 Mb/s
Movie name                  : Dragon Rider 2020 from seleZen
Encoded date                : UTC 2021-03-24 19:19:05
Writing application         : mkvmerge v55.0.0 ('Waiting For Space') 64-bit
Writing library             : libebml v1.4.2 + libmatroska v1.6.4

Video
ID                          : 1
Format                      : AVC
Format/Info                 : Advanced Video Codec
Format profile              : High@L4.1
Format settings             : CABAC / 5 Ref Frames
Format settings, CABAC      : Yes
Format settings, Reference  : 5 frames
Codec ID                    : V_MPEG4/ISO/AVC
Duration                    : 1 h 31 min
Bit rate                    : 8 888 kb/s
Width                       : 1 920 pixels
Height                      : 804 pixels
Display aspect ratio        : 2.40:1
Frame rate mode             : Constant
Frame rate                  : 23.976 (24000/1001) FPS
Color space                 : YUV
Chroma subsampling          : 4:2:0
Bit depth                   : 8 bits
Scan type                   : Progressive
Bits/(Pixel*Frame)          : 0.240
Stream size                 : 5.67 GiB (86%)
Writing library             : x264 core 161 -from seleZen
Encoding settings           : cabac=1 / ref=5 / deblock=1:-2:-2 / analyse=0x3:0x113 / me=umh / subme=10 / psy=1 / psy_rd=1.08:0.08 / mixed_ref=1 / me_range=32 / chroma_me=1 / trellis=2 / 8x8dct=1 / cqm=0 / deadzone=21,11 / fast_pskip=0 / chroma_qp_offset=-3 / threads=24 / lookahead_threads=4 / sliced_threads=0 / nr=0 / decimate=0 / interlaced=0 / bluray_compat=0 / constrained_intra=0 / bframes=9 / b_pyramid=2 / b_adapt=2 / b_bias=0 / direct=3 / weightb=1 / open_gop=0 / weightp=2 / keyint=240 / keyint_min=23 / scenecut=40 / intra_refresh=0 / rc_lookahead=40 / rc=2pass / mbtree=0 / bitrate=8888 / ratetol=1.0 / qcomp=0.60 / qpmin=0 / qpmax=51 / qpstep=4 / cplxblur=20.0 / qblur=0.5 / vbv_maxrate=50000 / vbv_bufsize=62000 / nal_hrd=none / filler=0 / ip_ratio=1.40 / pb_ratio=1.30 / aq=3:0.80
Language                    : English
Default                     : Yes
Forced                      : No

Audio #1
ID                          : 2
Format                      : AC-3
Format/Info                 : Audio Coding 3
Commercial name             : Dolby Digital
Codec ID                    : A_AC3
Duration                    : 1 h 31 min
Bit rate mode               : Constant
Bit rate                    : 384 kb/s
Channel(s)                  : 6 channels
Channel layout              : L R C LFE Ls Rs
Sampling rate               : 48.0 kHz
Frame rate                  : 31.250 FPS (1536 SPF)
Compression mode            : Lossy
Stream size                 : 251 MiB (4%)
Title                       : iTunes
Language                    : Russian
Service kind                : Complete Main
Default                     : Yes
Forced                      : Yes

Audio #2
ID                          : 3
Format                      : AC-3
Format/Info                 : Audio Coding 3
Commercial name             : Dolby Digital
Codec ID                    : A_AC3
Duration                    : 1 h 31 min
Bit rate mode               : Constant
Bit rate                    : 384 kb/s
Channel(s)                  : 6 channels
Channel layout              : L R C LFE Ls Rs
Sampling rate               : 48.0 kHz
Frame rate                  : 31.250 FPS (1536 SPF)
Compression mode            : Lossy
Stream size                 : 251 MiB (4%)
Title                       : iTunes
Language                    : Ukrainian
Service kind                : Complete Main
Default                     : No
Forced                      : No

Audio #3
ID                          : 4
Format                      : AC-3
Format/Info                 : Audio Coding 3
Commercial name             : Dolby Digital
Codec ID                    : A_AC3
Duration                    : 1 h 31 min
Bit rate mode               : Constant
Bit rate                    : 640 kb/s
Channel(s)                  : 6 channels
Channel layout              : L R C LFE Ls Rs
Sampling rate               : 48.0 kHz
Frame rate                  : 31.250 FPS (1536 SPF)
Compression mode            : Lossy
Stream size                 : 418 MiB (6%)
Title                       : Original
Language                    : English
Service kind                : Complete Main
Default                     : No
Forced                      : No

Menu
00:00:00.000                : en:Глава 01
00:05:00.175                : en:Глава 02
00:10:01.559                : en:Глава 03
00:17:30.424                : en:Глава 04
00:22:46.574                : en:Глава 05
00:27:14.132                : en:Глава 06
00:34:10.840                : en:Глава 07
00:41:48.005                : en:Глава 08
00:46:18.109                : en:Глава 09
00:53:55.065                : en:Глава 10
01:01:47.287                : en:Глава 11
01:08:19.095                : en:Глава 12
01:14:47.066                : en:Глава 13
01:18:31.290                : en:Глава 14
01:24:46.873                : en:Глава 15



Скриншоты:
[+] Всего файлов в раздаче - 1:
Dragon.Rider.2020.BDRip.1080p.seleZen.mkv6.57 GB

Похожие раздачи по запросу - повелитель:
2021-03-28 U Повелитель драконов / Dragon Rider (2020) BDRip-AVC от ExKinoRay | iTunes 1.59 GB ↑ 30 ↓ 5
2021-03-26 U Повелитель драконов / Dragon Rider (2020) BDRip от MegaPeer | iTunes 1.42 GB ↑ 56 ↓ 11
2021-01-01 U Повелитель драконов / Dragon Rider (2020) WEB-DLRip от ELEKTRI4KA | iTunes 1.46 GB ↑ 476 ↓ 145
2021-01-01 U Повелитель драконов / Dragon Rider (2020) WEB-DL 1080p | iTunes 3.38 GB ↑ 535 ↓ 202
2020-09-23 U Александр Седых - Повелитель 3. Новая империя (2020) MP3 412.01 MB ↑ 91 ↓ 8

Отзывы
Зарегистрируйтесь чтобы добавить комментарий.
Загрузите программу
  uTorrent.exe
Обратная связь
Copyleft ©