↑↓torrent.by
Поиск
Логин: Регистрация
Пароль: Восстановить пароль

Пугало (2020) WEB-DLRip-AVC от ExKinoRay | iTunes

Скачать pugalo-2020-web-dlrip-avc-ot-exkinoray-itunes.torrent
U Магнитная ссылка Размер: 1.31 GB Раздают: 114 Качают: 28 Добавлен: 2021-03-27 07:08:33
Пугало (2020) WEB-DLRip-AVC от ExKinoRay | iTunes

Название: Пугало
Год выхода: 2020
Жанр: Драма
Режиссер: Дмитрий Давыдов
В ролях: Валентина Романова-Чыскыырай, Анатолий Стручков, Артур Захаров, Анилена Гурьева

О фильме:
Она — знахарка и отшельница. Ее ненавидят взрослые и боятся дети, но если случилась беда, она — единственный шанс на спасение. Для нее этот дар — проклятие, но мрачная тайна, сокрытая в прошлом, заставляет ее помогать людям снова и снова.

Страна: Россия
Студия: Bonfire production
Продолжительность: 01:12:00
Перевод: Профессиональный многоголосый | iTunes

Файл
Формат: MKV
Качество: WEB-DLRip-AVC
Видео: MPEG-4 AVC, 2222 Кбит/с, 1024х432
Аудио: Русский (AC3, 6 ch, 384 Кбит/с)
Субтитры: Русские

Семпл

Релиз:


[+] M/I

Общее
Уникальный идентификатор : 248137397682585342591156257111980747586 (0xBAAD86427B2B2C6B8877C38107D9AB42)
Полное имя : D:РаздачаPugalo.2020.WEB-DLRip-AVC.ExKinoRay.mkv
Формат : Matroska
Версия формата : Version 4 / Version 2
Размер файла : 1,31 Гбайт
Продолжительность : 1 ч. 12 м.
Общий поток : 2608 Кбит/сек
Название фильма : Scarecrow.2020.WEB-DLRip-AVC.ExKinoRay & grab777
Дата кодирования : UTC 2021-03-25 22:08:48
Программа кодирования : mkvmerge v7.3.0 ('Nouages') 64bit built on Oct 22 2014 18:53:34
Библиотека кодирования : libebml v1.3.0 + libmatroska v1.4.1

Видео
Идентификатор : 1
Формат : AVC
Формат/Информация : Advanced Video Codec
Профиль формата : High@L4.1
Настройки формата : CABAC / 12 Ref Frames
Параметр CABAC формата : Да
Параметр RefFrames формата : 12 кадров
Идентификатор кодека : V_MPEG4/ISO/AVC
Продолжительность : 1 ч. 11 м.
Битрейт : 2222 Кбит/сек
Ширина : 1024 пикселя
Высота : 432 пикселя
Соотношение сторон : 2,40:1
Соотношение сторон в оригинале : 2,40:1
Режим частоты кадров : Постоянный
Частота кадров : 24,000 кадра/сек
Цветовое пространство : YUV
Субдискретизация насыщенности : 4:2:0
Битовая глубина : 8 бит
Тип развёртки : Прогрессивная
Бит/(Пиксели*Кадры) : 0.209
Размер потока : 1,12 Гбайт (85%)
Заголовок : Rip by grab777
Библиотека кодирования : x264 core 148 r2665M a01e339
Настройки программы : cabac=1 / ref=12 / deblock=1:-3:-3 / analyse=0x3:0x113 / me=umh / subme=10 / psy=1 / psy_rd=1.00:0.15 / mixed_ref=1 / me_range=32 / chroma_me=1 / trellis=2 / 8x8dct=1 / cqm=0 / deadzone=21,11 / fast_pskip=1 / chroma_qp_offset=-3 / threads=5 / lookahead_threads=1 / sliced_threads=0 / nr=0 / decimate=1 / interlaced=0 / bluray_compat=0 / constrained_intra=0 / bframes=10 / b_pyramid=2 / b_adapt=2 / b_bias=0 / direct=3 / weightb=1 / open_gop=0 / weightp=2 / keyint=240 / keyint_min=24 / scenecut=40 / intra_refresh=0 / rc_lookahead=40 / rc=crf / mbtree=0 / crf=15.6 / qcomp=0.60 / qpmin=0 / qpmax=69 / qpstep=4 / vbv_maxrate=50000 / vbv_bufsize=62500 / crf_max=0.0 / nal_hrd=none / filler=0 / ip_ratio=1.40 / pb_ratio=1.30 / aq=3:0.80
Язык : English
Default : Да
Forced : Нет
Цветовой диапазон : Limited
Основные цвета : BT.709
Характеристики трансфера : BT.709
Коэффициенты матрицы : BT.709

Аудио
Идентификатор : 2
Формат : AC-3
Формат/Информация : Audio Coding 3
Параметр Endianness формата : Big
Идентификатор кодека : A_AC3
Продолжительность : 1 ч. 12 м.
Вид битрейта : Постоянный
Битрейт : 384 Кбит/сек
Каналы : 6 каналов
Расположение каналов : Front: L C R, Side: L R, LFE
Частота : 48,0 КГц
Частота кадров : 31,250 кадров/сек (1536 SPF)
Битовая глубина : 16 бит
Метод сжатия : С потерями
Размер потока : 198 Мбайт (15%)
Заголовок : MVO (iTunes)
Язык : Russian  
Default : Да
Forced : Нет

Текст
Идентификатор : 3
Формат : UTF-8
Идентификатор кодека : S_TEXT/UTF8
Идентификатор кодека/Информация : UTF-8 Plain Text
Продолжительность : 1 ч. 4 м.
Битрейт : 34 бит/сек
ElementCount : 334
Размер потока : 16,3 Кбайт (0%)
Заголовок : Full
Язык : Russian
Default : Нет
Forced : Нет

Меню
00:00:00.000 : :Глава 1
00:08:45.957 : :Глава 2
00:16:36.874 : :Глава 3
00:24:43.707 : :Глава 4
00:31:26.998 : :Глава 5
00:37:10.998 : :Глава 6
00:44:27.081 : :Глава 7
00:51:15.997 : :Глава 8
00:57:04.913 : :Глава 9
01:03:41.454 : :Глава 10



Скриншоты:
[+] Всего файлов в раздаче - 1:
Pugalo.2020.WEB-DLRip-AVC.ExKinoRay.mkv1.31 GB

Похожие раздачи по запросу - пугало:
2021-03-26 U Пугало (2020) WEB-DLRip от MegaPeer | iTunes 1.09 GB ↑ 109 ↓ 18
2021-03-26 U Пугало (2020) WEB-DL 1080p от ExKinoRay 2.63 GB ↑ 128 ↓ 25
2021-03-26 U Пугало (2020) WEB-DLRip от ELEKTRI4KA | iTunes 1.09 GB ↑ 154 ↓ 37
2021-03-26 U Пугало (2020) WEB-DL 1080p от ELEKTRI4KA | iTunes 2.49 GB ↑ 195 ↓ 49

Отзывы
Зарегистрируйтесь чтобы добавить комментарий.
Загрузите программу
  uTorrent.exe
Обратная связь
Copyleft ©