↑↓torrent.by
Поиск
Логин: Регистрация
Пароль: Восстановить пароль

Обещанный Неверленд / Yakusoku no Neverland / The Promised Neverland [S02] (2021) WEBRip 1080p | D | StudioBand

Скачать obeschannyy-neverlend-yakusoku-no-neverland-the-promised-s02-2021-webrip-1080p-d-studioband.torrent
U Магнитная ссылка Размер: 14.26 GB Раздают: 33 Качают: 11 Добавлен: 2021-03-28 06:38:21
Обещанный Неверленд / Yakusoku no Neverland  / The Promised Neverland [S02] (2021) WEBRip 1080p | D | StudioBand

Название: Обещанный Неверленд 2
Оригинальное название: Yakusoku no Neverland 2nd Season
Английское название: The Promised Neverland 2nd Season
Год выхода: 2021
Жанр: фантастика, детектив, психологическое, триллер, сёнен
Режиссер: Мамору Камбэ

О фильме:
Эмме, Рею и другим детям благополучно удаётся покинуть территорию приюта «Благодатный дом». Но перебраться за стену, отделяющую интернат от внешнего мира, ещё не значит быть в безопасности, ведь теперь они в розыске. Вдобавок кругом сплошной лес, таящий в себе множество неизвестных, а порой и пугающих вещей. Дороги назад нет. Единственным шансом на выживание остаётся продолжить путь в поисках загадочного доброжелателя, Уильяма Минервы. Однако это лишь начало, самое трудное ждёт впереди, ведь докопаться до правды — задача не из лёгких. Смогут ли дети преодолеть все трудности и найти тот самый свет истины? © Shikimori


Страна: Япония
Продолжительность: ~00:24:00 (серия)
Перевод: Дублированный | StudioBand [Wakanim]

Файл
Формат: MKV
Кодек: MPEG-4 AVC
Качество: WEBRip 1080p
Видео: 1920x1080, ~ 7 319 kb/s, 23.976 FPS. 8 bits
Аудио (русский): AAC LC, ~ 320 kb/s, 2 channels, 48.0 kHz
Субтитры: русские (вшитые, на надписи)

Релиз:

25.03.2021 обновлено. Добавлена 11-я серия. Сезон окончен.


[+] MediaInfo

General
Unique ID                   : 315581123270414483771903689157902420794 (0xED6AB6A92E21FD302138F65A44314B3A)
Complete name               :[KORSARS]_Yakusoku.no.Neverland.2nd.Season.E01.WEBRip.1080p_[StudioBand].mkv
Format                      : Matroska
Format version              : Version 4
File size                   : 1.22 GiB
Duration                    : 22 min 48 s
Overall bit rate            : 7 640 kb/s
Movie name                  : [KORSARS]_Yakusoku.no.Neverland.2nd.Season.E01.WEBRip.1080p_[StudioBand]
Encoded date                : UTC 2021-01-07 18:07:33
Writing application         : mkvmerge v52.0.0 ('Secret For The Mad') 64-bit
Writing library             : libebml v1.4.1 + libmatroska v1.6.2

Video
ID                          : 1
Format                      : AVC
Format/Info                 : Advanced Video Codec
Format profile              : High@L4.1
Format settings             : CABAC / 4 Ref Frames
Format settings, CABAC      : Yes
Format settings, Reference  : 4 frames
Codec ID                    : V_MPEG4/ISO/AVC
Duration                    : 22 min 48 s
Bit rate                    : 7 319 kb/s
Width                       : 1 920 pixels
Height                      : 1 080 pixels
Display aspect ratio        : 16:9
Frame rate mode             : Constant
Frame rate                  : 23.976 (24000/1001) FPS
Color space                 : YUV
Chroma subsampling          : 4:2:0
Bit depth                   : 8 bits
Scan type                   : Progressive
Bits/(Pixel*Frame)          : 0.147
Stream size                 : 1.17 GiB (96%)
Title                       : [KORSARS]_Yakusoku.no.Neverland.2nd.Season.E01.WEBRip.1080p_[StudioBand]
Writing library             : x264 core 155 r2901 7d0ff22
Encoding settings           : cabac=1 / ref=4 / deblock=1:1:1 / analyse=0x3:0x133 / me=umh / subme=10 / psy=1 / psy_rd=0.40:0.00 / mixed_ref=1 / me_range=24 / chroma_me=1 / trellis=2 / 8x8dct=1 / cqm=0 / deadzone=21,11 / fast_pskip=1 / chroma_qp_offset=-2 / threads=24 / lookahead_threads=6 / sliced_threads=0 / nr=0 / decimate=1 / interlaced=0 / bluray_compat=0 / constrained_intra=0 / bframes=10 / b_pyramid=2 / b_adapt=2 / b_bias=0 / direct=3 / weightb=1 / open_gop=0 / weightp=2 / keyint=250 / keyint_min=23 / scenecut=40 / intra_refresh=0 / rc_lookahead=60 / rc=crf / mbtree=1 / crf=10.0 / qcomp=0.60 / qpmin=0 / qpmax=69 / qpstep=4 / ip_ratio=1.40 / aq=1:0.60
Default                     : Yes
Forced                      : No

Audio
ID                          : 2
Format                      : AAC LC
Format/Info                 : Advanced Audio Codec Low Complexity
Codec ID                    : A_AAC-2
Duration                    : 22 min 48 s
Bit rate                    : 318 kb/s
Channel(s)                  : 2 channels
Channel layout              : L R
Sampling rate               : 48.0 kHz
Frame rate                  : 46.875 FPS (1024 SPF)
Compression mode            : Lossy
Delay relative to video     : -21 ms
Stream size                 : 51.9 MiB (4%)
Title                       : [KORSARS]_Yakusoku.no.Neverland.2nd.Season.E01.WEBRip.1080p_[StudioBand]
Language                    : Russian
Default                     : Yes
Forced                      : No



Скриншоты:
[+] Всего файлов в раздаче - 11:
[KORSARS]_Yakusoku.no.Neverland.2nd.Season.E09.WEBRip.1080p_[StudioBand].mkv1.08 GB
[KORSARS]_Yakusoku.no.Neverland.2nd.Season.E08.WEBRip.1080p_[StudioBand].mkv1.17 GB
[KORSARS]_Yakusoku.no.Neverland.2nd.Season.E10.WEBRip.1080p_[StudioBand].mkv1.17 GB
[KORSARS]_Yakusoku.no.Neverland.2nd.Season.E04.WEBRip.1080p_[StudioBand].mkv1.21 GB
[KORSARS]_Yakusoku.no.Neverland.2nd.Season.E01.WEBRip.1080p_[StudioBand].mkv1.22 GB
[KORSARS]_Yakusoku.no.Neverland.2nd.Season.E03.WEBRip.1080p_[StudioBand].mkv1.24 GB
[KORSARS]_Yakusoku.no.Neverland.2nd.Season.E02.WEBRip.1080p_[StudioBand].mkv1.29 GB
[KORSARS]_Yakusoku.no.Neverland.2nd.Season.E06.WEBRip.1080p_[StudioBand].mkv1.39 GB
[KORSARS]_Yakusoku.no.Neverland.2nd.Season.E05.WEBRip.1080p_[StudioBand].mkv1.48 GB
[KORSARS]_Yakusoku.no.Neverland.2nd.Season.E07.WEBRip.1080p_[StudioBand].mkv1.48 GB
[KORSARS]_Yakusoku.no.Neverland.2nd.Season.E11.WEBRip.1080p_[StudioBand].mkv1.53 GB

Отзывы
Зарегистрируйтесь чтобы добавить комментарий.
Загрузите программу
  uTorrent.exe
Обратная связь
Copyleft ©