↑↓torrent.by
Поиск
Логин: Регистрация
Пароль: Восстановить пароль

Неуязвимый / Invincible [01x01-03 из 08] (2021) WEB-DL 1080p | HDrezka Studio

Скачать neuyazvimyy-invincible-01x01-03-iz-08-2021-web-dl-1080p-hdrezka-studio.torrent
U Магнитная ссылка Размер: 4.73 GB Раздают: 66 Качают: 45 Добавлен: 2021-03-29 15:21:09
Неуязвимый / Invincible [01x01-03 из 08] (2021) WEB-DL 1080p | HDrezka Studio

Название: Неуязвимый
Оригинальное название: Invincible
Год выхода: 2021
Жанр: мультфильм, ужасы, фантастика, фэнтези, боевик, триллер, драма, приключения
Режиссер: Джефф Аллен
В ролях: Стивен Юн, Сандра О, Дж.К. Симмонс, Зази Битц, Уолтон Гоггинс, Гиллиан Джейкобс, Джейсон Манцукас, Грей ДеЛайл, Кевин Майкл Ричардсон, Закари Куинто

О фильме: Супергерой с далекой планеты Вилтрум прилетает на Землю для ее защиты, берет имя Нолан и женится на Деборе, которая вскоре рожает ему мальчика. 17 лет спустя Марк Грейсон, сын известного на весь мир защитника человечества, старается походить на обыкновенного подростка, ходит в школу и влюбляется в девочек, но не может дождаться момента проявления своей наследственности. Когда это происходит, старшеклассник проходит все этапы становления героем, пытаясь совладать с силой, попутно размышляя над будущим костюмом и звучным прозвищем.

Страна:  США
Студия: Amazon Studios
Продолжительность: ~00:45:00 серия
Перевод: Профессиональный (многоголосый, закадровый) HDrezka Studio

Файл
Качество: WEB-DL 1080p | Invincible.S01.1080p.AMZN.WEBRip.DDP5.1.x264-NTb
Видео: 1920x1080 at 24.000 fps, MPEG-4 AVC, ~3600 kbps avg
Аудио#1:  Russian: 48 kHz, AC3, 3/2 (L,C,R,l,r) + LFE ch, ~448 kbps avg |Многоголосый закадровый, HDrezka Studio|
Аудио#2:  English: 48 kHz, E-AC3, 3/2 (L,C,R,l,r) + LFE ch, ~640 kbps avg
Субтитры: Russian (Forced |HDrezka Studio|, Full |Amazon|), English (Full, SDH)

***Примечание: Без рекламы
***18+ для зрителей, достигших возраста 18 лет


[+] Знаете ли вы, что…
Основано на комиксах Роберта Киркмана, автора серии комиксов «Ходячие мертвецы» (2003-2019).



[+] MediaInfo
General
Unique ID                      : 132100435242558354797664326488079680243 (0x63619E4ECEFCFC23A5C50314CA7342F3)
Complete name                  : Invincible.2021.S01E01.Its.About.Time.mkv
Format                         : Matroska
Format version                 : Version 4
File size                      : 1.57 GiB
Duration                       : 47 min 43 s
Overall bit rate               : 4 697 kb/s
Movie name                     : Invincible S01E01 | mrrvg@rutor
Encoded date                   : UTC 2021-03-28 11:35:09
Writing application            : mkvmerge v51.0.0 ('I Wish') 64-bit
Writing library                : libebml v1.4.0 + libmatroska v1.6.2

Video
ID                             : 1
Format                         : AVC
Format/Info                    : Advanced Video Codec
Format profile                 : High@L4
Format settings                : CABAC / 4 Ref Frames
Format settings, CABAC         : Yes
Format settings, Reference fra : 4 frames
Codec ID                       : V_MPEG4/ISO/AVC
Duration                       : 47 min 30 s
Bit rate mode                  : Constant
Bit rate                       : 3 625 kb/s
Nominal bit rate               : 10 000 kb/s
Width                          : 1 920 pixels
Height                         : 1 080 pixels
Display aspect ratio           : 16:9
Frame rate mode                : Constant
Frame rate                     : 24.000 FPS
Color space                    : YUV
Chroma subsampling             : 4:2:0
Bit depth                      : 8 bits
Scan type                      : Progressive
Bits/(Pixel*Frame)             : 0.073
Stream size                    : 1.20 GiB (77%)
Default                        : Yes
Forced                         : No
Color range                    : Limited
Color primaries                : BT.709
Transfer characteristics       : BT.709
Matrix coefficients            : BT.709

Audio #1
ID                             : 2
Format                         : AC-3
Format/Info                    : Audio Coding 3
Commercial name                : Dolby Digital
Codec ID                       : A_AC3
Duration                       : 47 min 43 s
Bit rate mode                  : Constant
Bit rate                       : 448 kb/s
Channel(s)                     : 6 channels
Channel layout                 : L R C LFE Ls Rs
Sampling rate                  : 48.0 kHz
Frame rate                     : 31.250 FPS (1536 SPF)
Compression mode               : Lossy
Stream size                    : 153 MiB (10%)
Title                          : HDrezka Studio
Language                       : Russian
Service kind                   : Complete Main
Default                        : Yes
Forced                         : No

Audio #2
ID                             : 3
Format                         : E-AC-3
Format/Info                    : Enhanced AC-3
Commercial name                : Dolby Digital Plus
Codec ID                       : A_EAC3
Duration                       : 47 min 30 s
Bit rate mode                  : Constant
Bit rate                       : 640 kb/s
Channel(s)                     : 6 channels
Channel layout                 : L R C LFE Ls Rs
Sampling rate                  : 48.0 kHz
Frame rate                     : 31.250 FPS (1536 SPF)
Compression mode               : Lossy
Stream size                    : 218 MiB (14%)
Language                       : English
Service kind                   : Complete Main
Default                        : No
Forced                         : No

Text #1
ID                             : 4
Format                         : UTF-8
Codec ID                       : S_TEXT/UTF8
Codec ID/Info                  : UTF-8 Plain Text
Duration                       : 27 min 58 s
Bit rate                       : 1 b/s
Count of elements              : 7
Stream size                    : 351 Bytes (0%)
Title                          : Forced
Language                       : Russian
Default                        : Yes
Forced                         : No

Text #2
ID                             : 5
Format                         : UTF-8
Codec ID                       : S_TEXT/UTF8
Codec ID/Info                  : UTF-8 Plain Text
Duration                       : 47 min 19 s
Bit rate                       : 90 b/s
Count of elements              : 586
Stream size                    : 31.4 KiB (0%)
Title                          : Full
Language                       : Russian
Default                        : No
Forced                         : No

Text #3
ID                             : 6
Format                         : UTF-8
Codec ID                       : S_TEXT/UTF8
Codec ID/Info                  : UTF-8 Plain Text
Duration                       : 45 min 54 s
Bit rate                       : 72 b/s
Count of elements              : 1129
Stream size                    : 24.3 KiB (0%)
Title                          : SDH
Language                       : English
Default                        : No
Forced                         : No

Text #4
ID                             : 7
Format                         : UTF-8
Codec ID                       : S_TEXT/UTF8
Codec ID/Info                  : UTF-8 Plain Text
Duration                       : 45 min 37 s
Bit rate                       : 61 b/s
Count of elements              : 876
Stream size                    : 20.5 KiB (0%)
Language                       : English
Default                        : No
Forced                         : No

Menu
00:00:00.000                   : en:Amazon Original
00:00:05.000                   : en:Disclaimer
00:00:15.000                   : en:Scene 3
00:09:13.000                   : en:Scene 4
00:11:44.000                   : en:Scene 5
00:13:37.000                   : en:Scene 6
00:17:23.000                   : en:Scene 7
00:18:49.000                   : en:Scene 8
00:22:25.000                   : en:Scene 9
00:23:15.000                   : en:Scene 10
00:24:24.000                   : en:Scene 11
00:27:39.000                   : en:Scene 12
00:29:48.000                   : en:Scene 13
00:32:36.000                   : en:Scene 14
00:34:13.000                   : en:Scene 15
00:34:23.000                   : en:Scene 16
00:37:09.000                   : en:Title Sequence
00:37:14.000                   : en:Scene 18
00:38:37.000                   : en:Scene 19
00:39:02.000                   : en:Scene 20
00:39:25.000                   : en:Scene 21
00:40:04.000                   : en:Scene 22
00:40:53.000                   : en:Scene 23
00:41:20.000                   : en:Scene 24
00:42:24.000                   : en:Scene 25
00:46:21.000                   : en:End Credits



Скриншоты:
[+] Всего файлов в раздаче - 3:
Invincible.2021.S01E01.Its.About.Time.mkv1.57 GB
Invincible.2021.S01E02.Here.Goes.Nothing.mkv1.69 GB
Invincible.2021.S01E03.Who.You.Calling.Ugly.mkv1.48 GB

Похожие раздачи по запросу - неуязвимый:
2021-04-11 U Неуязвимый / Invincible [01x01-05 из 08] (2021) WEB-DL 1080p | HDrezka Studio 7.45 GB ↑ 32 ↓ 39
2021-04-05 U Неуязвимый / Invincible [01x01-04 из 08] (2021) WEB-DL 1080p | HDrezka Studio 5.94 GB ↑ 32 ↓ 32

Отзывы
Зарегистрируйтесь чтобы добавить комментарий.
Загрузите программу
  uTorrent.exe
Обратная связь
Copyleft ©