↑↓torrent.by
Поиск
Логин: Регистрация
Пароль: Восстановить пароль

Вдова (2020) BDRip 1080p | US Transfer | Лицензия

Скачать vdova-2020-bdrip-1080p-us-transfer-licenziya.torrent
U Магнитная ссылка Размер: 10.11 GB Раздают: 41 Качают: 23 Добавлен: 2021-03-30 05:17:22
Вдова (2020) BDRip 1080p | US Transfer | Лицензия

Оригинальное название: Вдова
Год выхода: 2020
Жанр: Ужасы, триллер
Режиссер: Иван Минин
В ролях: Виктория Потемина, Анастасия Грибова, Маргарита Бычкова, Илья Агапов, Алексей Анискин, Константин Нестерко, Олег Чугунов

О фильме: Ежегодно в лесах на севере Ленинградской области пропадает более 300 человек. Известны случаи, когда тела пропавших находят посреди леса – полностью обнаженными, без каких-либо следов насильственной смерти. Во время учений команда волонтеров-спасателей получает сообщение о потерявшемся мальчике. Углубляясь в глухой лес, поисковый отряд сталкивается со зловещей сущностью: согласно преданиям, здесь обитает неупокоенный дух давно погибшей ведьмы, которую местные называют Хромой Вдовой. Они верят, что встреча со Вдовой несет смерть…

Страна: Россия
Студия: QS FILMS
Продолжительность: 01:26:16
Озвучивание: Оригинальное (Лицензия)

Качество: BDRip 1080p
Видео: MPEG-4 AVC, 1920x804, 14.0 Mbit/s, 23.976 fps
Аудио #01: 48 kHz, DTS, 5.1, 1510 Kbps | Лицензия | RUS |
Аудио #02: 48 kHz, AC3, 5.1, 640 Kbps | Лицензия | RUS |
Аудио #03: 48 kHz, AC3, 5.1, 640 Kbps | Английский | ENG |
Субтитры: Русские (Forced)


[+] MI
General
Unique ID                   : 149543901415182619781560640789934446673 (0x70811B970CF45773FBAEF700C1971851)
Complete name               : F:VideoThe.Widow.2020.BDRip.1080p.mkv
Format                      : Matroska
Format version              : Version 4
File size                   : 10.1 GiB
Duration                    : 1 h 26 min
Overall bit rate            : 16.8 Mb/s
Encoded date                : UTC 2021-03-29 13:58:51
Writing application         : mkvmerge v55.0.0 ('Waiting For Space') 64-bit
Writing library             : libebml v1.4.2 + libmatroska v1.6.4

Video
ID                          : 1
Format                      : AVC
Format/Info                 : Advanced Video Codec
Format profile              : High@L4.1
Format settings             : CABAC / 4 Ref Frames
Format settings, CABAC      : Yes
Format settings, Reference  : 4 frames
Codec ID                    : V_MPEG4/ISO/AVC
Duration                    : 1 h 26 min
Bit rate                    : 14.0 Mb/s
Width                       : 1 920 pixels
Height                      : 804 pixels
Display aspect ratio        : 2.40:1
Frame rate mode             : Constant
Frame rate                  : 23.976 (24000/1001) FPS
Color space                 : YUV
Chroma subsampling          : 4:2:0
Bit depth                   : 8 bits
Scan type                   : Progressive
Bits/(Pixel*Frame)          : 0.378
Stream size                 : 8.43 GiB (83%)
Title                       : CHD
Writing library             : x264 core 157 r2867+150 7e91e0e t_mod_Custom_2 [8-bit@all X86_64]
Encoding settings           : cabac=1 / ref=4 / deblock=1:-3:-3 / analyse=0x3:0x133 / me=umh / subme=11 / psy=1 / fade_compensate=0.00 / psy_rd=0.90:0.10 / mixed_ref=1 / me_range=64 / chroma_me=1 / trellis=2 / 8x8dct=1 / cqm=0 / deadzone=21,11 / fast_pskip=0 / chroma_qp_offset=-4 / threads=25 / lookahead_threads=4 / sliced_threads=0 / nr=0 / decimate=1 / interlaced=0 / bluray_compat=0 / constrained_intra=0 / fgo=0 / bframes=8 / b_pyramid=2 / b_adapt=2 / b_bias=0 / direct=3 / weightb=1 / open_gop=0 / weightp=2 / keyint=250 / keyint_min=23 / scenecut=40 / intra_refresh=0 / rc_lookahead=60 / rc=crf / mbtree=0 / crf=18.0000 / qcomp=0.70 / qpmin=0:0:0 / qpmax=69:69:69 / qpstep=4 / vbv_maxrate=35000 / vbv_bufsize=35000 / crf_max=0.0 / nal_hrd=none / filler=0 / ip_ratio=1.40 / pb_ratio=1.30 / aq=3:1.00 / aq-sensitivity=10.00 / aq-factor=1.00:1.00:1.00 / aq2=0 / aq3=0
Language                    : English
Default                     : Yes
Forced                      : No

Audio #1
ID                          : 2
Format                      : DTS
Format/Info                 : Digital Theater Systems
Codec ID                    : A_DTS
Duration                    : 1 h 26 min
Bit rate mode               : Constant
Bit rate                    : 1 509 kb/s
Channel(s)                  : 6 channels
Channel layout              : C L R Ls Rs LFE
Sampling rate               : 48.0 kHz
Frame rate                  : 93.750 FPS (512 SPF)
Bit depth                   : 24 bits
Compression mode            : Lossy
Stream size                 : 931 MiB (9%)
Language                    : Russian
Default                     : Yes
Forced                      : Yes

Audio #2
ID                          : 3
Format                      : AC-3
Format/Info                 : Audio Coding 3
Commercial name             : Dolby Digital
Codec ID                    : A_AC3
Duration                    : 1 h 26 min
Bit rate mode               : Constant
Bit rate                    : 640 kb/s
Channel(s)                  : 6 channels
Channel layout              : L R C LFE Ls Rs
Sampling rate               : 48.0 kHz
Frame rate                  : 31.250 FPS (1536 SPF)
Compression mode            : Lossy
Stream size                 : 395 MiB (4%)
Language                    : Russian
Service kind                : Complete Main
Default                     : No
Forced                      : No

Audio #3
ID                          : 4
Format                      : AC-3
Format/Info                 : Audio Coding 3
Commercial name             : Dolby Digital
Codec ID                    : A_AC3
Duration                    : 1 h 26 min
Bit rate mode               : Constant
Bit rate                    : 640 kb/s
Channel(s)                  : 6 channels
Channel layout              : L R C LFE Ls Rs
Sampling rate               : 48.0 kHz
Frame rate                  : 31.250 FPS (1536 SPF)
Compression mode            : Lossy
Stream size                 : 395 MiB (4%)
Language                    : English
Service kind                : Complete Main
Default                     : No
Forced                      : No

Text
ID                          : 5
Format                      : UTF-8
Codec ID                    : S_TEXT/UTF8
Codec ID/Info               : UTF-8 Plain Text
Duration                    : 10 min 22 s
Bit rate                    : 12 b/s
Count of elements           : 9
Stream size                 : 939 Bytes (0%)
Title                       : Forced
Language                    : Russian
Default                     : Yes
Forced                      : Yes

Menu
00:00:00.000                : en:Глава 01
00:07:21.191                : en:Глава 02
00:13:21.300                : en:Глава 03
00:22:36.021                : en:Глава 04
00:27:40.325                : en:Глава 05
00:36:01.034                : en:Глава 06
00:42:28.379                : en:Глава 07
00:49:29.508                : en:Глава 08
00:58:12.489                : en:Глава 09
01:07:04.103                : en:Глава 10
01:16:57.196                : en:Глава 11
01:23:07.441                : en:Глава 12



Скриншоты:
[+] Всего файлов в раздаче - 1:
The.Widow.2020.BDRip.1080p.mkv10.11 GB

Показать еще раздачи по запросу вдова:
2021-03-30 U Вдова (2020) BDRip от MegaPeer | US Transfer | Лицензия 1.46 GB ↑ 45 ↓ 15
2021-03-27 U Китайская вдова / Feng huo fang fei / In Harm's Way (2017) BDRip от MegaPeer | HDRezka Studio 1.46 GB ↑ 56 ↓ 21
2021-03-08 U Черная вдова [01-04 из 04] (2021) WEB-DLRip от Files-x 2.24 GB ↑ 82 ↓ 45
2021-03-08 U Черная вдова [01-04 из 04] (2021) WEB-DL 1080p 6.69 GB ↑ 85 ↓ 45
2021-03-08 U Черная вдова [01-04 из 04] (2021) WEB-DLRip-AVC от Files-x 2.23 GB ↑ 159 ↓ 108
2021-03-07 U Черная вдова [01-04 из 04] (2020) SATRip-AVC 2.06 GB ↑ 167 ↓ 105
2021-01-01 U Вдова (2020) WEB-DLRip от ELEKTRI4KA | iTunes 1.37 GB ↑ 334 ↓ 104

Отзывы
Зарегистрируйтесь чтобы добавить комментарий.
Загрузите программу
  uTorrent.exe
Обратная связь
Copyleft ©