↑↓torrent.by
Поиск
Логин: Регистрация
Пароль: Восстановить пароль

Душа / Soul (2020) BDRip 1080p от селезень | D, P | iTunes

Скачать dusha-soul-2020-bdrip-1080p-ot-selezen-d-p-itunes.torrent
U Магнитная ссылка Размер: 12.14 GB Раздают: 55 Качают: 19 Добавлен: 2021-04-01 05:44:32
Душа / Soul (2020) BDRip 1080p от селезень | D, P | iTunes

Название: Душа
Оригинальное название: Soul
Год выхода: 2020
Жанр: Мультфильм, фэнтези, комедия, семейный, музыка, полнометражный
Режиссер: Пит Доктер, Кемп Пауэрс
В ролях: Джейми Фокс, Тина Фей, Филисия Рашад, Давид Диггс, Анджела Бассетт, Грэм Нортон, Рэйчел Хаус, Алиси Брага, Ричард Айоади, Доннел Роулингс

О фильме: Главный герой мультфильма – Джо Гарднер, школьный учитель музыки, который мечтает играть джаз. Однажды удача улыбается ему, и он проходит прослушивание в джазовую группу – и уже вечером должен сесть за пианино и сыграть настоящий концерт на публике. Окрыленный, он идет домой, но по пути падает в люк – а после приходит в себя в неком странном месте (по сути, это некое пространство между жизнью и смертью). Там находятся юные души, которые еще не родились и которых нужно всему обучить. Решив во чтобы то ни стало вернуться на землю (ведь ему только-только начало везти!), Джо заключает союз с героем номер 22 – мятежной душой, которая не очень-то заинтересована в жизни на Земле. Затем Джо пытается показать 22, насколько прекрасен наш мир. В процессе этого он незаметно для себя придаст своей жизни новый смысл...

Страна: США
Студия: Walt Disney Pictures, Pixar Animation Studios
Продолжительность: 01:45:22
Перевод(ы):
#1: Дублированный | iTunes
#2: Профессиональный многоголосый  | HDRezka Studio

Качество: BDRip 1080p
Видео: MPEG-4 AVC, 1920x804, 15.8 Mbit/s, 23.976 fps
Аудио #01: 48 kHz, AC3, 5.1, 384 Kbps | Дублированный | RUS |
Аудио #02: 48 kHz, AC3, 5.1, 448 Kbps | Профессиональный многоголосый | RUS |
Аудио #03: 48 kHz, AC3, 5.1, 640 Kbps | Оригинал | ENG |
Субтитры: Русские (Forced, full), английские

Релиз: Присоединяйся к:


[+] MI
General
Unique ID                   : 295060839019328960679120525768529748596 (0xDDFAA6890662D1BBD519DF8B55BB2274)
Complete name               : F:VideoSoul.2020.BDRip.1080p.seleZen.mkv
Format                      : Matroska
Format version              : Version 4
File size                   : 12.1 GiB
Duration                    : 1 h 40 min
Overall bit rate            : 17.3 Mb/s
Movie name                  : Soul 2020 from seleZen
Encoded date                : UTC 2021-03-31 19:08:32
Writing application         : mkvmerge v55.0.0 ('Waiting For Space') 64-bit
Writing library             : libebml v1.4.2 + libmatroska v1.6.4

Video
ID                          : 1
Format                      : AVC
Format/Info                 : Advanced Video Codec
Format profile              : High@L4.1
Format settings             : CABAC / 5 Ref Frames
Format settings, CABAC      : Yes
Format settings, Reference  : 5 frames
Codec ID                    : V_MPEG4/ISO/AVC
Duration                    : 1 h 40 min
Bit rate                    : 15.8 Mb/s
Width                       : 1 920 pixels
Height                      : 804 pixels
Display aspect ratio        : 2.40:1
Frame rate mode             : Constant
Frame rate                  : 23.976 (24000/1001) FPS
Color space                 : YUV
Chroma subsampling          : 4:2:0
Bit depth                   : 8 bits
Scan type                   : Progressive
Bits/(Pixel*Frame)          : 0.427
Stream size                 : 11.1 GiB (91%)
Title                       : playHD
Writing library             : x264 core 160 r3000+53 e3e4c3e t_mod_New [(8 & 10)-bit@all X86_64]
Encoding settings           : cabac=1 / ref=5 / deblock=1:-3:-3 / analyse=0x3:0x133 / me=umh / subme=10 / psy=1 / fade_compensate=0.00 / psy_rd=1.00:0.00 / mixed_ref=1 / me_range=32 / chroma_me=1 / trellis=2 / 8x8dct=1 / cqm=0 / deadzone=21,11 / fast_pskip=0 / chroma_qp_offset=-2 / threads=24 / lookahead_threads=4 / sliced_threads=0 / nr=0 / decimate=0 / interlaced=0 / bluray_compat=0 / constrained_intra=0 / fgo=0 / bframes=8 / b_pyramid=2 / b_adapt=2 / b_bias=0 / direct=3 / weightb=1 / open_gop=0 / weightp=2 / keyint=250 / keyint_min=23 / scenecut=40 / intra_refresh=0 / rc=crf / mbtree=0 / crf=15.1000 / qcomp=0.60 / qpmin=0:0:0 / qpmax=69:69:69 / qpstep=4 / ip_ratio=1.30 / pb_ratio=1.20 / aq=3:0.85 / aq-sensitivity=10.00 / aq-factor=1.00:1.00:1.00 / aq2=0 / aq3=0 / zones=19413,19486,crf=14.5
Language                    : English
Default                     : Yes
Forced                      : No

Audio #1
ID                          : 2
Format                      : AC-3
Format/Info                 : Audio Coding 3
Commercial name             : Dolby Digital
Codec ID                    : A_AC3
Duration                    : 1 h 40 min
Bit rate mode               : Constant
Bit rate                    : 384 kb/s
Channel(s)                  : 6 channels
Channel layout              : L R C LFE Ls Rs
Sampling rate               : 48.0 kHz
Frame rate                  : 31.250 FPS (1536 SPF)
Compression mode            : Lossy
Delay relative to video     : 731 ms
Stream size                 : 276 MiB (2%)
Title                       : iTunes
Language                    : Russian
Service kind                : Complete Main
Default                     : Yes
Forced                      : Yes

Audio #2
ID                          : 3
Format                      : AC-3
Format/Info                 : Audio Coding 3
Commercial name             : Dolby Digital
Codec ID                    : A_AC3
Duration                    : 1 h 40 min
Bit rate mode               : Constant
Bit rate                    : 448 kb/s
Channel(s)                  : 6 channels
Channel layout              : L R C LFE Ls Rs
Sampling rate               : 48.0 kHz
Frame rate                  : 31.250 FPS (1536 SPF)
Compression mode            : Lossy
Stream size                 : 322 MiB (3%)
Title                       : MVO [HDRezka Studio]
Language                    : Russian
Service kind                : Complete Main
Default                     : No
Forced                      : No

Audio #3
ID                          : 4
Format                      : AC-3
Format/Info                 : Audio Coding 3
Commercial name             : Dolby Digital
Codec ID                    : A_AC3
Duration                    : 1 h 40 min
Bit rate mode               : Constant
Bit rate                    : 640 kb/s
Channel(s)                  : 6 channels
Channel layout              : L R C LFE Ls Rs
Sampling rate               : 48.0 kHz
Frame rate                  : 31.250 FPS (1536 SPF)
Compression mode            : Lossy
Stream size                 : 460 MiB (4%)
Title                       : Original
Language                    : English
Service kind                : Complete Main
Default                     : No
Forced                      : No

Text #1
ID                          : 5
Format                      : UTF-8
Codec ID                    : S_TEXT/UTF8
Codec ID/Info               : UTF-8 Plain Text
Duration                    : 1 h 9 min
Bit rate                    : 1 b/s
Count of elements           : 22
Stream size                 : 1 016 Bytes (0%)
Title                       : Forced
Language                    : Russian
Default                     : Yes
Forced                      : Yes

Text #2
ID                          : 6
Format                      : UTF-8
Codec ID                    : S_TEXT/UTF8
Codec ID/Info               : UTF-8 Plain Text
Duration                    : 1 h 39 min
Bit rate                    : 110 b/s
Count of elements           : 1544
Stream size                 : 81.1 KiB (0%)
Title                       : Full
Language                    : Russian
Default                     : No
Forced                      : No

Text #3
ID                          : 7
Format                      : UTF-8
Codec ID                    : S_TEXT/UTF8
Codec ID/Info               : UTF-8 Plain Text
Duration                    : 1 h 39 min
Bit rate                    : 67 b/s
Count of elements           : 1612
Stream size                 : 49.3 KiB (0%)
Title                       : Full
Language                    : English
Default                     : No
Forced                      : No

Text #4
ID                          : 8
Format                      : UTF-8
Codec ID                    : S_TEXT/UTF8
Codec ID/Info               : UTF-8 Plain Text
Duration                    : 1 h 40 min
Bit rate                    : 78 b/s
Count of elements           : 1857
Stream size                 : 57.7 KiB (0%)
Title                       : SDH
Language                    : English
Default                     : No
Forced                      : No

Menu
00:00:00.000                : en:Глава 01
00:03:32.337                : en:Глава 02
00:04:57.923                : en:Глава 03
00:08:43.189                : en:Глава 04
00:09:18.892                : en:Глава 05
00:11:49.334                : en:Глава 06
00:12:29.457                : en:Глава 07
00:15:03.569                : en:Глава 08
00:17:12.031                : en:Глава 09
00:18:24.687                : en:Глава 10
00:19:53.984                : en:Глава 11
00:21:29.663                : en:Глава 12
00:26:00.058                : en:Глава 13
00:29:47.786                : en:Глава 14
00:36:07.916                : en:Глава 15
00:38:22.383                : en:Глава 16
00:39:53.307                : en:Глава 17
00:41:55.805                : en:Глава 18
00:43:43.621                : en:Глава 19
00:44:29.166                : en:Глава 20
00:46:06.263                : en:Глава 21
00:49:38.183                : en:Глава 22
00:50:40.537                : en:Глава 23
00:51:28.126                : en:Глава 24
00:55:31.328                : en:Глава 25
00:56:59.791                : en:Глава 26
00:58:34.094                : en:Глава 27
01:00:31.794                : en:Глава 28
01:04:48.551                : en:Глава 29
01:07:53.361                : en:Глава 30
01:09:15.484                : en:Глава 31
01:12:33.974                : en:Глава 32
01:15:32.361                : en:Глава 33
01:17:23.639                : en:Глава 34
01:21:15.453                : en:Глава 35
01:22:57.806                : en:Глава 36
01:26:43.323                : en:Глава 37
01:28:32.306                : en:Глава 38
01:30:13.574                : en:Глава 39



Скриншоты:
[+] Всего файлов в раздаче - 1:
Soul.2020.BDRip.1080p.seleZen.mkv12.14 GB

Показать еще раздачи по запросу душа:
2021-04-04 U Душа / Soul (2020) UHD BDRip-HEVC 1080p | HDR | D | iTunes 3.90 GB ↑ 201 ↓ 52
2021-04-01 U Душа / Soul (2020) BDRip 720p от ExKinoRay | iTunes | D, HDRezka Studio 3.24 GB ↑ 63 ↓ 17
2021-04-01 U Душа / Soul (2020) BDRip 720p от ELEKTRI4KA | iTunes 5.80 GB ↑ 72 ↓ 30
2021-04-01 U Душа / Soul (2020) BDRip от MegaPeer | iTunes 1.42 GB ↑ 69 ↓ 20
2021-04-01 U Душа / Soul (2020) BDRip 1080p от ELEKTRI4KA | iTunes 9.94 GB ↑ 38 ↓ 28
2021-03-24 U Душа / Soul (2020) BDRip-AVC от ExKinoRay | HDRezka Studio 2.40 GB ↑ 26 ↓ 4
2021-03-22 U Душа / Soul (2020) BDRemux 1080p | HDRezka Studio 20.68 GB ↑ 24 ↓ 6

Отзывы
Зарегистрируйтесь чтобы добавить комментарий.
Загрузите программу
  uTorrent.exe
Обратная связь
Copyleft ©