↑↓torrent.by
Поиск
Логин: Регистрация
Пароль: Восстановить пароль

Душа / Soul (2020) BDRip 1080p от ELEKTRI4KA | iTunes

Скачать dusha-soul-2020-bdrip-1080p-ot-elektri4ka-itunes.torrent
U Магнитная ссылка Размер: 9.94 GB Раздают: 38 Качают: 28 Добавлен: 2021-04-01 05:46:26
Душа / Soul (2020) BDRip 1080p от ELEKTRI4KA | iTunes

Информация
Название: Душа
Оригинальное название: Soul
Год выхода: 2020
Жанр: Мультфильм, фэнтези, комедия, приключения, семейный, музыка
Режиссер: Пит Доктер, Кемп Пауэрс
В ролях: Джейми Фокс, Тина Фей, Филисия Рашад, Давид Диггс, Анджела Бассетт, Грэм Нортон, Рэйчел Хаус, Алиси Брага, Ричард Айоади, Доннел Роулингс

Описание: Школьный учитель музыки Джо Гарднер случайно попадает в мир, где зарождаются человеческие увлечения, мечты и интересы, и там он знакомится с молодой душой по имени 22.

Выпущено: США / Walt Disney Pictures, Pixar Animation Studios
Продолжительность: 01:40:31
Озвучивание #1: Дублированное | Русский язык | iTunes
Озвучивание #2: Дублированное | Украинский язык

Файл
Формат: MKV
Качество: BDRip 1080p
Видео: MPEG-4 AVC, 12.7 Мb/s, 1920x804
Аудио #1: Russian: 48 kHz, AC3 Dolby Digital, 3/2 (L, C, R, l, r) + LFE ch, ~384 Kbps | DUB | iTunes
Аудио #2: Ukrainian: 48 kHz, AC3 Dolby Digital, 3/2 (L, C, R, l, r) + LFE ch, ~384 Kbps | DUB
Аудио #3: English: 48 kHz, AC3 Dolby Digital, 3/2 (L, C, R, l, r) + LFE ch, ~640 Kbps | Original
Субтитры: Russian (Forced, Full), Ukrainian (Forced, Full), English
Дополнительно: Сохранены оригинальные чаптеры.

Релиз: &


[+] MediaInfo:
Complete name: Dusha.2020.1080p.BluRay.ELEKTRI4KA.UNIONGANG.mkv
Format: Matroska
Format version: Version 4
File size: 9.94 GiB
Duration: 1 h 40 min
Overall bit rate: 14.2 Mb/s
Movie name: Dusha.2020.1080p.BluRay.ELEKTRI4KA.UNIONGANG.
Encoded date: UTC 2021-03-31 18:36:46
Writing application: mkvmerge v8.3.0 ('Over the Horizon') 64bit
Writing library: libebml v1.3.1 + libmatroska v1.4.2

Video
ID: 1
Format: AVC
Format/Info: Advanced Video Codec
Format profile: High@L4.1
Format settings: CABAC / 5 Ref Frames
Format settings, CABAC: Yes
Format settings, Reference frames: 5 frames
Codec ID: V_MPEG4/ISO/AVC
Duration: 1 h 40 min
Bit rate: 12.7 Mb/s
Width: 1 920 pixels
Height: 804 pixels
Display aspect ratio: 2.40:1
Frame rate mode: Constant
Frame rate: 23.976 (24000/1001) FPS
Color space: YUV
Chroma subsampling: 4:2:0
Bit depth: 8 bits
Scan type: Progressive
Bits/(Pixel*Frame): 0.344
Stream size: 8.95 GiB (90%)
Writing library: x264 core 161 r3048+58M ~ Encoded by Mocunaman in Portugal
Encoding settings: cabac=1 / ref=5 / deblock=1:-3:-3 / analyse=0x3:0x113 / me=umh / subme=11 / psy=1 / fade_compensate=0.00 / psy_rd=0.80:0.00 / mixed_ref=1 / me_range=32 / chroma_me=1 / trellis=2 / 8x8dct=1 / cqm=0 / deadzone=21, 11 / fast_pskip=0 / chroma_qp_offset=-2 / threads=25 / lookahead_threads=6 / sliced_threads=0 / nr=0 / decimate=0 / interlaced=0 / bluray_compat=0 / constrained_intra=0 / fgo=0 / bframes=10 / b_pyramid=2 / b_adapt=2 / b_bias=0 / direct=3 / weightb=1 / open_gop=0 / weightp=2 / keyint=250 / keyint_min=23 / scenecut=40 / intra_refresh=0 / rc_lookahead=60 / rc=crf / mbtree=0 / crf=16.5000 / qcomp=0.60 / qpmin=0:0:0 / qpmax=69:69:69 / qpstep=4 / vbv_maxrate=62500 / vbv_bufsize=78125 / crf_max=0.0 / nal_hrd=none / filler=0 / ip_ratio=1.30 / pb_ratio=1.20 / aq=3:0.90 / aq-sensitivity=10.00 / aq-factor=1.00:1.00:1.00 / aq2=0 / aq3=0 / zones=7464, 12543, crf=15.5/13407, 17991, crf=15.5/21183, 21663, crf=15.5/23220, 23465, crf=15.5/25937, 37391, crf=15.5/42863, 52295, crf=15.5/62516, 62903, crf=15.5/81023, 81983, crf=15.5/84263, 87075, crf=16/94060, 99628, crf=16/104404, 120100, crf=15.5/120940, 123364, crf=15.5/125764, 129449, crf=15.5
Language: English
Default: Yes
Forced: No
Color range: Limited
Color primaries: BT.709
Transfer characteristics: BT.709
Matrix coefficients: BT.709

Audio #1
ID: 2
Format: AC-3
Format/Info: Audio Coding 3
Commercial name: Dolby Digital
Codec ID: A_AC3
Duration: 1 h 40 min
Bit rate mode: Constant
Bit rate: 384 kb/s
Channel(s): 6 channels
Channel layout: L R C LFE Ls Rs
Sampling rate: 48.0 kHz
Frame rate: 31.250 FPS (1536 SPF)
Compression mode: Lossy
Stream size: 276 MiB (3%)
Title: DUB (iTunes)
Language: Russian
Service kind: Complete Main
Default: Yes
Forced: Yes

Audio #2
ID: 3
Format: AC-3
Format/Info: Audio Coding 3
Commercial name: Dolby Digital
Codec ID: A_AC3
Duration: 1 h 40 min
Bit rate mode: Constant
Bit rate: 384 kb/s
Channel(s): 6 channels
Channel layout: L R C LFE Ls Rs
Sampling rate: 48.0 kHz
Frame rate: 31.250 FPS (1536 SPF)
Compression mode: Lossy
Stream size: 276 MiB (3%)
Title: DUB
Language: Ukrainian
Service kind: Complete Main
Default: No
Forced: No

Audio #3
ID: 4
Format: AC-3
Format/Info: Audio Coding 3
Commercial name: Dolby Digital
Codec ID: A_AC3
Duration: 1 h 40 min
Bit rate mode: Constant
Bit rate: 640 kb/s
Channel(s): 6 channels
Channel layout: L R C LFE Ls Rs
Sampling rate: 48.0 kHz
Frame rate: 31.250 FPS (1536 SPF)
Compression mode: Lossy
Stream size: 460 MiB (5%)
Title: Original, AC3 5.1 640 Kbps
Language: English
Service kind: Complete Main
Default: No
Forced: No

Text #1
ID: 5
Format: UTF-8
Codec ID: S_TEXT/UTF8
Codec ID/Info: UTF-8 Plain Text
Duration: 1 h 9 min
Bit rate: 1 b/s
Count of elements: 22
Stream size: 1 016 Bytes (0%)
Title: Forced
Language: Russian
Default: Yes
Forced: Yes

Text #2
ID: 6
Format: UTF-8
Codec ID: S_TEXT/UTF8
Codec ID/Info: UTF-8 Plain Text
Duration: 1 h 39 min
Bit rate: 98 b/s
Count of elements: 1336
Stream size: 71.9 KiB (0%)
Title: Full (iTunes)
Language: Russian
Default: No
Forced: No

Text #3
ID: 7
Format: UTF-8
Codec ID: S_TEXT/UTF8
Codec ID/Info: UTF-8 Plain Text
Duration: 1 h 35 min
Bit rate: 1 b/s
Count of elements: 24
Stream size: 1.03 KiB (0%)
Title: Ukr Forced for Dub
Language: Ukrainian
Default: No
Forced: No

Text #4
ID: 8
Format: UTF-8
Codec ID: S_TEXT/UTF8
Codec ID/Info: UTF-8 Plain Text
Duration: 1 h 39 min
Bit rate: 100 b/s
Count of elements: 1341
Stream size: 73.2 KiB (0%)
Title: Ukr Full
Language: Ukrainian
Default: No
Forced: No

Text #5
ID: 9
Format: UTF-8
Codec ID: S_TEXT/UTF8
Codec ID/Info: UTF-8 Plain Text
Duration: 1 h 39 min
Bit rate: 68 b/s
Count of elements: 1576
Stream size: 49.8 KiB (0%)
Title: Full .srt
Language: English
Default: No
Forced: No

Text #6
ID: 10
Format: UTF-8
Codec ID: S_TEXT/UTF8
Codec ID/Info: UTF-8 Plain Text
Duration: 1 h 40 min
Bit rate: 79 b/s
Count of elements: 1855
Stream size: 58.8 KiB (0%)
Title: SDH .srt
Language: English
Default: No
Forced: No

Menu
00:00:00.000: en:Joe
00:03:32.337: en:Mom
00:04:57.923: en:Audition
00:08:43.189: en:Celebrate
00:09:18.892: en:The Great Beyond
00:11:49.334: en:Fall
00:12:29.457: en:You Seminar
00:15:03.569: en:Earth Portal
00:17:12.031: en:Terry
00:18:24.687: en:Theater
00:19:53.984: en:Mentee 22
00:21:29.663: en:Joe s Life
00:26:00.058: en:Everything
00:29:47.786: en:Meet the Mystics
00:36:07.916: en:Alive
00:38:22.383: en:Hospital Escape
00:39:53.307: en:Nyc
00:41:55.805: en:Moonwind
00:43:43.621: en:Taxi
00:44:29.166: en:Home
00:46:06.263: en:Connie
00:49:38.183: en:Tracking
00:50:40.537: en:Line Up
00:51:28.126: en:Barber
00:55:31.328: en:Arrivel
00:56:59.791: en:Rip
00:58:34.094: en:Busker
01:00:31.794: en:Suit
01:04:48.551: en:Ready for Earth
01:07:53.361: en:Pursuit
01:09:15.484: en:Betrayed
01:12:33.974: en:The Gig
01:15:32.361: en:Lost
01:17:23.639: en:Epiphany
01:21:15.453: en:Ship Chase
01:22:57.806: en:Rescue 22
01:26:43.323: en:Earthbound
01:28:32.306: en:Thank You
01:30:13.574: en:End Credits



Скриншоты:
[+] Всего файлов в раздаче - 1:
Dusha.2020.1080p.BluRay.ELEKTRI4KA.UNIONGANG.mkv9.94 GB

Показать еще раздачи по запросу душа:
2021-04-04 U Душа / Soul (2020) UHD BDRip-HEVC 1080p | HDR | D | iTunes 3.90 GB ↑ 201 ↓ 52
2021-04-01 U Душа / Soul (2020) BDRip 720p от ExKinoRay | iTunes | D, HDRezka Studio 3.24 GB ↑ 63 ↓ 17
2021-04-01 U Душа / Soul (2020) BDRip 720p от ELEKTRI4KA | iTunes 5.80 GB ↑ 72 ↓ 30
2021-04-01 U Душа / Soul (2020) BDRip от MegaPeer | iTunes 1.42 GB ↑ 69 ↓ 20
2021-04-01 U Душа / Soul (2020) BDRip 1080p от селезень | D, P | iTunes 12.14 GB ↑ 55 ↓ 19
2021-03-24 U Душа / Soul (2020) BDRip-AVC от ExKinoRay | HDRezka Studio 2.40 GB ↑ 26 ↓ 4
2021-03-22 U Душа / Soul (2020) BDRemux 1080p | HDRezka Studio 20.68 GB ↑ 24 ↓ 6

Отзывы
Зарегистрируйтесь чтобы добавить комментарий.
Загрузите программу
  uTorrent.exe
Обратная связь
Copyleft ©