↑↓torrent.by
Поиск
Логин: Регистрация
Пароль: Восстановить пароль

Душа / Soul (2020) BDRip 720p от ExKinoRay | iTunes | D, HDRezka Studio

Скачать dusha-soul-2020-bdrip-720p-ot-exkinoray-itunes-d-hdrezka-studio.torrent
U Магнитная ссылка Размер: 3.24 GB Раздают: 63 Качают: 17 Добавлен: 2021-04-01 13:44:33
Душа / Soul (2020) BDRip 720p от ExKinoRay | iTunes | D, HDRezka Studio

Название: Душа
Оригинальное название: Soul
Год выпуска: 2020  
Жанр: Мультфильм, фэнтези, комедия, приключения, семейный
Режиссер: Пит Доктер, Кемп Пауэрс
В ролях: Джейми Фокс, Тина Фей, Филисия Рашад, Давид Диггс, Анджела Бассетт, Грэм Нортон, Рэйчел Хаус, Алиси Брага, Ричард Айоади, Доннел Роулингс

О фильме: Школьный учитель музыки Джо Гарднер умер. Но поскольку незадолго до смерти он отыграл концерт своей мечты и получил предложение играть в крутейшем джаз-бэнде на постоянной основе, Джо с таким положением дел категорически не согласен. Чудом и настырностью он сбегает с травелатора, ведущего прямиком в Великое После, в Великое Перед – дивное местечко, где взращиваются души, чтобы быть отправленными на Землю. Дело осталось за малым: воспитать одну вредную душонку под номером Двадцать Два, выкрасть её пропуск и вернуться ровнёхонько к вечернему выступлению. Думаете, получится?

Страна: США
Студия: Pixar Animation Studios, Walt Disney Pictures
Продолжительность: 01:40:33
Перевод: Дублированный | iTunes
Профессиональный многоголосый | HDRezka Studio

Формат: MKV
Качество: BDRip 720p
Видео: MPEG-4 AVC, 1280x536 (2.40:1), 23.976 fps, 3132 Кb/s, 0.123 bit/pixel
Аудио 1: 48 kHz, AC3, 5.1, 384 Kbps | DUB | RUS |
Аудио 2: 48 kHz, AC3, 5.1, 448 Kbps | MVO | RUS |
Аудио 3: 48 kHz, AC3, 5.1, 640 Kbps | Оригинал |  ENG |
Субтитры: Русские (Forced, full), английские

Релиз:

Автор релиза:


[+] ОтчетМедиаИнфо


x264 [info]: frame I:1291 Avg QP:13.88 size: 95594
x264 [info]: frame P:31729 Avg QP:15.85 size: 35991
x264 [info]: frame B:111625 Avg QP:18.40 size: 9820
x264 [info]: consecutive B-frames: 2.6% 4.1% 5.7% 19.1% 18.7% 34.2% 7.8% 3.3% 2.5% 1.9%
-----------------------------------------------

General
Unique ID                   : 250257321635720702739581750020400209163 (0xBC45CE948A338443A12F3890EA73DD0B)
Complete name               : D:Soul.2020.BDRip.720p.ExKinoRay.mkv
Format                      : Matroska
Format version              : Version 4
File size                   : 3.24 GiB
Duration                    : 1 h 40 min
Overall bit rate            : 4 606 kb/s
Movie name                  : Soul 2020 from ExKinoRay
Encoded date                : UTC 2021-03-31 22:27:07
Writing application         : mkvmerge v7.3.0 ('Nouages') 64bit built on Oct 22 2014 18:53:34
Writing library             : libebml v1.3.0 + libmatroska v1.4.1

Video
ID                          : 1
Format                      : AVC
Format/Info                 : Advanced Video Codec
Format profile              : High@L4.1
Format settings             : CABAC / 12 Ref Frames
Format settings, CABAC      : Yes
Format settings, Reference  : 12 frames
Codec ID                    : V_MPEG4/ISO/AVC
Duration                    : 1 h 40 min
Bit rate                    : 3 132 kb/s
Width                       : 1 280 pixels
Height                      : 536 pixels
Display aspect ratio        : 2.40:1
Frame rate mode             : Constant
Frame rate                  : 23.976 (24000/1001) FPS
Color space                 : YUV
Chroma subsampling          : 4:2:0
Bit depth                   : 8 bits
Scan type                   : Progressive
Bits/(Pixel*Frame)          : 0.190
Stream size                 : 2.20 GiB (68%)
Writing library             : x264 core 146 r2538 121396c
Encoding settings           : cabac=1 / ref=12 / deblock=1:-2:-2 / analyse=0x3:0x133 / me=umh / subme=10 / psy=1 / psy_rd=1.04:0.03 / mixed_ref=1 / me_range=32 / chroma_me=1 / trellis=2 / 8x8dct=1 / cqm=0 / deadzone=21,11 / fast_pskip=0 / chroma_qp_offset=-3 / threads=48 / lookahead_threads=4 / sliced_threads=0 / nr=0 / decimate=0 / interlaced=0 / bluray_compat=0 / constrained_intra=0 / bframes=9 / b_pyramid=2 / b_adapt=2 / b_bias=0 / direct=1 / weightb=1 / open_gop=0 / weightp=2 / keyint=240 / keyint_min=23 / scenecut=40 / intra_refresh=0 / rc_lookahead=50 / rc=crf / mbtree=0 / crf=17.0 / qcomp=0.60 / qpmin=0 / qpmax=51 / qpstep=4 / vbv_maxrate=50000 / vbv_bufsize=62500 / crf_max=0.0 / nal_hrd=none / filler=0 / ip_ratio=1.40 / pb_ratio=1.30 / aq=3:0.80
Language                    : English
Default                     : Yes
Forced                      : No

Audio #1
ID                          : 2
Format                      : AC-3
Format/Info                 : Audio Coding 3
Commercial name             : Dolby Digital
Codec ID                    : A_AC3
Duration                    : 1 h 40 min
Bit rate mode               : Constant
Bit rate                    : 384 kb/s
Channel(s)                  : 6 channels
Channel layout              : L R C LFE Ls Rs
Sampling rate               : 48.0 kHz
Frame rate                  : 31.250 FPS (1536 SPF)
Compression mode            : Lossy
Delay relative to video     : 731 ms
Stream size                 : 276 MiB (8%)
Title                       : Dub (iTunes)
Language                    : Russian
Service kind                : Complete Main
Default                     : Yes
Forced                      : No

Audio #2
ID                          : 3
Format                      : AC-3
Format/Info                 : Audio Coding 3
Commercial name             : Dolby Digital
Codec ID                    : A_AC3
Duration                    : 1 h 40 min
Bit rate mode               : Constant
Bit rate                    : 448 kb/s
Channel(s)                  : 6 channels
Channel layout              : L R C LFE Ls Rs
Sampling rate               : 48.0 kHz
Frame rate                  : 31.250 FPS (1536 SPF)
Compression mode            : Lossy
Stream size                 : 322 MiB (10%)
Title                       : MVO (HDRezka Studio)
Language                    : Russian
Service kind                : Complete Main
Default                     : No
Forced                      : No

Audio #3
ID                          : 4
Format                      : AC-3
Format/Info                 : Audio Coding 3
Commercial name             : Dolby Digital
Codec ID                    : A_AC3
Duration                    : 1 h 40 min
Bit rate mode               : Constant
Bit rate                    : 640 kb/s
Channel(s)                  : 6 channels
Channel layout              : L R C LFE Ls Rs
Sampling rate               : 48.0 kHz
Frame rate                  : 31.250 FPS (1536 SPF)
Compression mode            : Lossy
Stream size                 : 460 MiB (14%)
Language                    : English
Service kind                : Complete Main
Default                     : No
Forced                      : No

Text #1
ID                          : 5
Format                      : UTF-8
Codec ID                    : S_TEXT/UTF8
Codec ID/Info               : UTF-8 Plain Text
Duration                    : 1 h 9 min
Bit rate                    : 1 b/s
Count of elements           : 22
Stream size                 : 1 016 Bytes (0%)
Title                       : Forced
Language                    : Russian
Default                     : Yes
Forced                      : No

Text #2
ID                          : 6
Format                      : UTF-8
Codec ID                    : S_TEXT/UTF8
Codec ID/Info               : UTF-8 Plain Text
Duration                    : 1 h 39 min
Bit rate                    : 110 b/s
Count of elements           : 1544
Stream size                 : 81.1 KiB (0%)
Title                       : Full
Language                    : Russian
Default                     : No
Forced                      : No

Text #3
ID                          : 7
Format                      : UTF-8
Codec ID                    : S_TEXT/UTF8
Codec ID/Info               : UTF-8 Plain Text
Duration                    : 1 h 39 min
Bit rate                    : 67 b/s
Count of elements           : 1612
Stream size                 : 49.3 KiB (0%)
Title                       : Full
Language                    : English
Default                     : No
Forced                      : No

Text #4
ID                          : 8
Format                      : UTF-8
Codec ID                    : S_TEXT/UTF8
Codec ID/Info               : UTF-8 Plain Text
Duration                    : 1 h 40 min
Bit rate                    : 78 b/s
Count of elements           : 1857
Stream size                 : 57.7 KiB (0%)
Title                       : SDH
Language                    : English
Default                     : No
Forced                      : No

Menu
00:00:00.000                : en:Глава 01
00:03:32.337                : en:Глава 02
00:04:57.923                : en:Глава 03
00:08:43.189                : en:Глава 04
00:09:18.892                : en:Глава 05
00:11:49.334                : en:Глава 06
00:12:29.457                : en:Глава 07
00:15:03.569                : en:Глава 08
00:17:12.031                : en:Глава 09
00:18:24.687                : en:Глава 10
00:19:53.984                : en:Глава 11
00:21:29.663                : en:Глава 12
00:26:00.058                : en:Глава 13
00:29:47.786                : en:Глава 14
00:36:07.916                : en:Глава 15
00:38:22.383                : en:Глава 16
00:39:53.307                : en:Глава 17
00:41:55.805                : en:Глава 18
00:43:43.621                : en:Глава 19
00:44:29.166                : en:Глава 20
00:46:06.263                : en:Глава 21
00:49:38.183                : en:Глава 22
00:50:40.537                : en:Глава 23
00:51:28.126                : en:Глава 24
00:55:31.328                : en:Глава 25
00:56:59.791                : en:Глава 26
00:58:34.094                : en:Глава 27
01:00:31.794                : en:Глава 28
01:04:48.551                : en:Глава 29
01:07:53.361                : en:Глава 30
01:09:15.484                : en:Глава 31
01:12:33.974                : en:Глава 32
01:15:32.361                : en:Глава 33
01:17:23.639                : en:Глава 34
01:21:15.453                : en:Глава 35
01:22:57.806                : en:Глава 36
01:26:43.323                : en:Глава 37
01:28:32.306                : en:Глава 38
01:30:13.574                : en:Глава 39




Скриншоты:
[+] Всего файлов в раздаче - 1:
Soul.2020.BDRip.720p.ExKinoRay.mkv3.24 GB

Показать еще раздачи по запросу душа:
2021-04-04 U Душа / Soul (2020) UHD BDRip-HEVC 1080p | HDR | D | iTunes 3.90 GB ↑ 201 ↓ 52
2021-04-01 U Душа / Soul (2020) BDRip 720p от ELEKTRI4KA | iTunes 5.80 GB ↑ 73 ↓ 30
2021-04-01 U Душа / Soul (2020) BDRip от MegaPeer | iTunes 1.42 GB ↑ 69 ↓ 20
2021-04-01 U Душа / Soul (2020) BDRip 1080p от ELEKTRI4KA | iTunes 9.94 GB ↑ 38 ↓ 28
2021-04-01 U Душа / Soul (2020) BDRip 1080p от селезень | D, P | iTunes 12.14 GB ↑ 55 ↓ 19
2021-03-24 U Душа / Soul (2020) BDRip-AVC от ExKinoRay | HDRezka Studio 2.40 GB ↑ 26 ↓ 4
2021-03-22 U Душа / Soul (2020) BDRemux 1080p | HDRezka Studio 20.68 GB ↑ 24 ↓ 6

Отзывы
Зарегистрируйтесь чтобы добавить комментарий.
Загрузите программу
  uTorrent.exe
Обратная связь
Copyleft ©