↑↓torrent.by
Поиск
Логин: Регистрация
Пароль: Восстановить пароль

Я свободен (2019) WEBRip 1080p

Скачать ya-svoboden-2019-webrip-1080p.torrent
U Магнитная ссылка Размер: 4.24 GB Раздают: 166 Качают: 73 Добавлен: 2021-04-02 17:00:50
Я свободен (2019) WEBRip 1080p

Название: Я свободен
Год выхода: 2019
Жанр: Драма
Режиссер: Илья Северов
В ролях: Глеб Калюжный, Ангелина Загребина, Лидия Емельяненко, Евгений Ковылин, Григорий Верник, Анастасия Крупнова, Давид Мелконян, Алексей Булатов, Сергей Чабанчук, Арсений Орлов, Петр Савченков, Андрей Фомин, Ирина Горячева, Эдуард Безродный, Валерий Александрин, Кирилл Ильин, Сабрин Фитини

О фильме:
Семнадцатилетний Артем приезжает в лагерь на берегу моря между сменами, чтобы спрятаться от проблем и тяжелых воспоминаний прошлого. Но вместо желанного одиночества молчаливого героя встречают странные обитатели лагеря, с которыми он вынужден общаться. Вереница случайных (или совсем неслучайных?) событий должна либо сломать, либо излечить героя.

Страна: Россия
Студия: Киностудия им. М. Горького
Продолжительность: 01:30:59
Язык: Русский

Автор релиза:
Примечание: Без рекламы

Файл
Формат: MKV
Качество: WEBRip 1080p
Видео: MPEG-4 AVC, 6480 Кбит/с, 1920х1080
Звук: AAC, 2 ch, 256 Кбит/с
Субтитры: Отсутствуют
Семпл


[+] MI
General
Unique ID                                : 26088826467331891876054357072622986845 (0x13A0867435F53C413DCC1B23B8C9265D)
Complete name                            : Ya.svoboden.2019.1080p.START.WEB-DL.AAC2.0.H.264-EniaHD.mkv
Format                                   : Matroska
Format version                           : Version 4
File size                                : 4.24 GiB
Duration                                 : 1 h 30 min
Overall bit rate                         : 6 680 kb/s
Writing application                      : mkvmerge v55.0.0 ('Waiting For Space') 64-bit
Writing library                          : libebml v1.4.2 + libmatroska v1.6.4

Video
ID                                       : 1
Format                                   : AVC
Format/Info                              : Advanced Video Codec
Format profile                           : High@L4
Format settings                          : CABAC / 4 Ref Frames
Format settings, CABAC                   : Yes
Format settings, Reference frames        : 4 frames
Codec ID                                 : V_MPEG4/ISO/AVC
Duration                                 : 1 h 30 min
Bit rate                                 : 6 480 kb/s
Width                                    : 1 920 pixels
Height                                   : 1 080 pixels
Display aspect ratio                     : 16:9
Frame rate mode                          : Constant
Frame rate                               : 25.000 FPS
Color space                              : YUV
Chroma subsampling                       : 4:2:0
Bit depth                                : 8 bits
Scan type                                : Progressive
Bits/(Pixel*Frame)                       : 0.125
Stream size                              : 4.08 GiB (96%)
Writing library                          : x264 core 152
Encoding settings                        : cabac=1 / ref=2 / deblock=1:0:0 / analyse=0x3:0x113 / me=hex / subme=6 / psy=1 / psy_rd=1.00:0.00 / mixed_ref=1 / me_range=16 / chroma_me=1 / trellis=1 / 8x8dct=1 / cqm=0 / deadzone=21,11 / fast_pskip=1 / chroma_qp_offset=-2 / threads=12 / lookahead_threads=2 / sliced_threads=0 / nr=0 / decimate=1 / interlaced=0 / bluray_compat=0 / constrained_intra=0 / bframes=3 / b_pyramid=2 / b_adapt=1 / b_bias=0 / direct=1 / weightb=1 / open_gop=0 / weightp=1 / keyint=250 / keyint_min=25 / scenecut=40 / intra_refresh=0 / rc_lookahead=30 / rc=abr / mbtree=1 / bitrate=6480 / ratetol=1.0 / qcomp=0.60 / qpmin=0 / qpmax=69 / qpstep=4 / vbv_maxrate=7776 / vbv_bufsize=15552 / nal_hrd=none / filler=0 / ip_ratio=1.40 / aq=1:1.00
Default                                  : Yes
Forced                                   : No
Color range                              : Limited
Color primaries                          : BT.709
Transfer characteristics                 : BT.709
Matrix coefficients                      : BT.709

Audio
ID                                       : 2
Format                                   : AAC LC
Format/Info                              : Advanced Audio Codec Low Complexity
Codec ID                                 : A_AAC-2
Duration                                 : 1 h 30 min
Bit rate                                 : 254 kb/s
Channel(s)                               : 2 channels
Channel layout                           : L R
Sampling rate                            : 48.0 kHz
Frame rate                               : 46.875 FPS (1024 SPF)
Compression mode                         : Lossy
Stream size                              : 165 MiB (4%)
Language                                 : Russian
Default                                  : Yes
Forced                                   : No



Скриншоты:
[+] Всего файлов в раздаче - 1:
Ya.svoboden.2019.1080p.START.WEB-DL.AAC2.0.H.264-EniaHD.mkv4.24 GB

Похожие раздачи по запросу - свободен:
2021-04-02 U Я свободен (2019) WEBRip от MegaPeer 1.46 GB ↑ 62 ↓ 50

Отзывы
Зарегистрируйтесь чтобы добавить комментарий.
Загрузите программу
  uTorrent.exe
Обратная связь
Copyleft ©