↑↓torrent.by
Поиск
Логин: Регистрация
Пароль: Восстановить пароль

Душа / Soul (2020) UHD BDRip-HEVC 1080p | HDR | D | iTunes

Скачать dusha-soul-2020-uhd-bdrip-hevc-1080p-hdr-d-itunes.torrent
U Магнитная ссылка Размер: 3.90 GB Раздают: 201 Качают: 52 Добавлен: 2021-04-04 17:27:28
Душа / Soul (2020) UHD BDRip-HEVC 1080p | HDR | D | iTunes

Название: Душа
Оригинальное название:  Soul
Год выхода:  2020
Производство:  США /  Pixar Animation Studios, Walt Disney Pictures
Жанр: Мультфильм, фэнтези, комедия, семейный
Перевод: Дублированный
Продолжительность:  01:40:32

Режиссеры:  Пит Доктер, Кемп Пауэрс
В ролях:  Джейми Фокс, Тина Фей, Грэм Нортон, Рэйчел Хаус, Анджела Бассетт, Алиси Брага, Ричард Айоади, Филисия Рашад, Доннел Роулингс, Амир-Халиб Томпсон

Описание:  Главный герой мультфильма – Джо Гарднер, школьный учитель музыки, который мечтает играть джаз. Однажды удача улыбается ему, и он проходит прослушивание в джазовую группу – и уже вечером должен сесть за пианино и сыграть настоящий концерт на публике. Окрыленный, он идет домой, но по пути падает в люк – а после приходит в себя в неком странном месте (по сути, это некое пространство между жизнью и смертью). Там находятся юные души, которые еще не родились и которых нужно всему обучить. Решив во чтобы то ни стало вернуться на землю (ведь ему только-только начало везти!), Джо заключает союз с героем номер 22 – мятежной душой, которая не очень-то заинтересована в жизни на Земле. Затем Джо пытается показать 22, насколько прекрасен наш мир. В процессе этого он незаметно для себя придаст своей жизни новый смысл...

Формат: MKV
Качество: UHD BDRip-HEVC 1080p
Видео : HEVC/Х265, 1920x804, 4142 Kbps, 0.112 бит/(Пиксели*Кадры), 23.976 fps.
Аудио 01: AC3, 6 ch, 384 Kbps - Русский дублированный (iTunes)
Аудио 02: AC3, 6 ch, 384 Kbps - Украинский дублированный
Аудио 03: AC3, 6 ch, 640 Kbps - Английский

Субтитры: Русские (Full, Forced), украинские (Full, Forced), английские (Full, SDH)

Релиз:


[+] Лог (x265 info) + Mediainfo
x265 [info]: Avg QP:12.37 kb/s [url=/tag/7/][/url]
x265 [info]: Avg QP:13.89 kb/s [url=/tag/7/][/url]
x265 [info]: Avg QP:16.10 kb/s [url=/tag/7/][/url]
[url=/tag/7/][/url]
General [url=/tag/7/][/url]
Unique ID : 319168566506470176707263933816844207876 (0xF01DA144AD9DC0C1B25864AA72624704) [url=/tag/7/][/url]
Complete name : E:TorrentSoul (2020).mkv [url=/tag/7/][/url]
Format : Matroska [url=/tag/7/][/url]
Format version : Version 4 [url=/tag/7/][/url]
File size : 3.90 GiB [url=/tag/7/][/url]
Duration : 1 h 40 min [url=/tag/7/][/url]
Overall bit rate : 5 553 kb/s [url=/tag/7/][/url]
Movie name : Soul (2020) [url=/tag/7/][/url]
Encoded date : UTC 2021-04-02 03:30:38 [url=/tag/7/][/url]
Writing application : mkvmerge v54.0.0 ('F Maj Pixie') 64-bit [url=/tag/7/][/url]
Writing library : libebml v1.4.2 + libmatroska v1.6.3 [url=/tag/7/][/url]
Cover : Yes [url=/tag/7/][/url]
Attachments : cover [url=/tag/7/][/url]
[url=/tag/7/][/url]
Video [url=/tag/7/][/url]
ID : 1 [url=/tag/7/][/url]
Format : HEVC [url=/tag/7/][/url]
Format/Info : High Efficiency Video Coding [url=/tag/7/][/url]
Format profile : Main 10@L4.1@High [url=/tag/7/][/url]
HDR format : SMPTE ST 2086, HDR10 compatible [url=/tag/7/][/url]
Codec ID : V_MPEGH/ISO/HEVC [url=/tag/7/][/url]
Duration : 1 h 40 min [url=/tag/7/][/url]
Bit rate : 4 142 kb/s [url=/tag/7/][/url]
Width : 1 920 pixels [url=/tag/7/][/url]
Height : 804 pixels [url=/tag/7/][/url]
Display aspect ratio : 2.40:1 [url=/tag/7/][/url]
Frame rate mode : Constant [url=/tag/7/][/url]
Frame rate : 23.976 (23976/1000) FPS [url=/tag/7/][/url]
Original frame rate : 23.976 (24000/1001) FPS [url=/tag/7/][/url]
Color space : YUV [url=/tag/7/][/url]
Chroma subsampling : 4:2:0 (Type 2) [url=/tag/7/][/url]
Bit depth : 10 bits [url=/tag/7/][/url]
Bits/(Pixel*Frame) : 0.112 [url=/tag/7/][/url]
Stream size : 2.91 GiB (75%) [url=/tag/7/][/url]
Writing library : x265 3.4+10-g25b2c0703:[Windows][MSVC 1927][64 bit] 10bit [url=/tag/7/][/url]
Encoding settings : cpuid=1111039 / frame-threads=4 / numa-pools=16 / wpp / no-pmode / no-pme / no-psnr / no-ssim / log-level=2 / input-csp=1 / input-res=1920x804 / interlace=0 / total-frames=144645 / level-idc=41 / high-tier=1 / uhd-bd=0 / ref=5 / no-allow-non-conformance / repeat-headers / annexb / no-aud / no-hrd / info / hash=0 / no-temporal-layers / open-gop / min-keyint=23 / keyint=240 / gop-lookahead=0 / bframes=16 / b-adapt=2 / b-pyramid / bframe-bias=0 / rc-lookahead=60 / lookahead-slices=4 / scenecut=40 / hist-scenecut=0 / radl=0 / no-splice / no-intra-refresh / ctu=32 / min-cu-size=8 / rect / no-amp / max-tu-size=32 / tu-inter-depth=4 / tu-intra-depth=4 / limit-tu=1 / rdoq-level=2 / dynamic-rd=0.00 / no-ssim-rd / signhide / no-tskip / nr-intra=0 / nr-inter=0 / no-constrained-intra / no-strong-intra-smoothing / max-merge=4 / limit-refs=2 / limit-modes / me=3 / subme=7 / merange=57 / temporal-mvp / no-frame-dup / no-hme / weightp / weightb / no-analyze-src-pics / deblock=-3:-3 / no-sao / no-sao-non-deblock / rd=6 / selective-sao=0 / no-early-skip / no-rskip / no-fast-intra / no-tskip-fast / no-cu-lossless / no-b-intra / no-splitrd-skip / rdpenalty=0 / psy-rd=2.00 / psy-rdoq=1.00 / no-rd-refine / no-lossless / cbqpoffs=0 / crqpoffs=0 / rc=crf / crf=17.0 / qcomp=0.60 / qpstep=4 / stats-write=0 / stats-read=0 / vbv-maxrate=50000 / vbv-bufsize=50000 / vbv-init=0.9 / crf-max=0.0 / crf-min=0.0 / ipratio=1.40 / pbratio=1.30 / aq-mode=1 / aq-strength=1.00 / no-cutree / zone-count=0 / no-strict-cbr / qg-size=32 / no-rc-grain / qpmax=69 / qpmin=0 / no-const-vbv / sar=1 / overscan=0 / videoformat=5 / range=0 / colorprim=9 / transfer=16 / colormatrix=9 / chromaloc=1 / chromaloc-top=2 / chromaloc-bottom=2 / display-window=0 / master-display=G(13250,34500)B(7500,3000)R(34000,16000)WP(15635,16450)L(10000000,0) / cll=0,0 / min-luma=0 / max-luma=1023 / log2-max-poc-lsb=8 / vui-timing-info / vui-hrd-info / slices=1 / no-opt-qp-pps / no-opt-ref-list-length-pps / no-multi-pass-opt-rps / scenecut-bias=0.05 / hist-threshold=0.01 / no-opt-cu-delta-qp / no-aq-motion / hdr10 / hdr10-opt / no-dhdr10-opt / no-idr-recovery-sei / analysis-reuse-level=0 / analysis-save-reuse-level=0 / analysis-load-reuse-level=0 / scale-factor=0 / refine-intra=0 / refine-inter=0 / refine-mv=1 / refine-ctu-distortion=0 / no-limit-sao / ctu-info=0 / no-lowpass-dct / refine-analysis-type=0 / copy-pic=1 / max-ausize-factor=1.0 / no-dynamic-refine / no-single-sei / no-hevc-aq / no-svt / no-field / qp-adaptation-range=1.00 / no-scenecut-aware-qpconformance-window-offsets / right=0 / bottom=0 / decoder-max-rate=0 [url=/tag/7/][/url]
Default : Yes [url=/tag/7/][/url]
Forced : No [url=/tag/7/][/url]
Color range : Limited [url=/tag/7/][/url]
Color primaries : BT.2020 [url=/tag/7/][/url]
Transfer characteristics : PQ [url=/tag/7/][/url]
Matrix coefficients : BT.2020 non-constant [url=/tag/7/][/url]
Mastering display color primar : Display P3 [url=/tag/7/][/url]
Mastering display luminance : min: 0.0000 cd/m2, max: 1000 cd/m2 [url=/tag/7/][/url]
[url=/tag/7/][/url]
Audio #1 [url=/tag/7/][/url]
ID : 2 [url=/tag/7/][/url]
Format : AC-3 [url=/tag/7/][/url]
Format/Info : Audio Coding 3 [url=/tag/7/][/url]
Commercial name : Dolby Digital [url=/tag/7/][/url]
Codec ID : A_AC3 [url=/tag/7/][/url]
Duration : 1 h 40 min [url=/tag/7/][/url]
Bit rate mode : Constant [url=/tag/7/][/url]
Bit rate : 384 kb/s [url=/tag/7/][/url]
Channel(s) : 6 channels [url=/tag/7/][/url]
Channel layout : L R C LFE Ls Rs [url=/tag/7/][/url]
Sampling rate : 48.0 kHz [url=/tag/7/][/url]
Frame rate : 31.250 FPS (1536 SPF) [url=/tag/7/][/url]
Compression mode : Lossy [url=/tag/7/][/url]
Delay relative to video : 731 ms [url=/tag/7/][/url]
Stream size : 276 MiB (7%) [url=/tag/7/][/url]
Title : Дубляж [url=/tag/7/][/url]
Language : Russian [url=/tag/7/][/url]
Service kind : Complete Main [url=/tag/7/][/url]
Default : Yes [url=/tag/7/][/url]
Forced : No [url=/tag/7/][/url]
[url=/tag/7/][/url]
Audio #2 [url=/tag/7/][/url]
ID : 3 [url=/tag/7/][/url]
Format : E-AC-3 [url=/tag/7/][/url]
Format/Info : Enhanced AC-3 [url=/tag/7/][/url]
Commercial name : Dolby Digital Plus [url=/tag/7/][/url]
Codec ID : A_EAC3 [url=/tag/7/][/url]
Duration : 1 h 40 min [url=/tag/7/][/url]
Bit rate mode : Constant [url=/tag/7/][/url]
Bit rate : 384 kb/s [url=/tag/7/][/url]
Channel(s) : 6 channels [url=/tag/7/][/url]
Channel layout : L R C LFE Ls Rs [url=/tag/7/][/url]
Sampling rate : 48.0 kHz [url=/tag/7/][/url]
Frame rate : 31.250 FPS (1536 SPF) [url=/tag/7/][/url]
Compression mode : Lossy [url=/tag/7/][/url]
Stream size : 276 MiB (7%) [url=/tag/7/][/url]
Title : Дубляж [url=/tag/7/][/url]
Language : Ukrainian [url=/tag/7/][/url]
Service kind : Complete Main [url=/tag/7/][/url]
Default : No [url=/tag/7/][/url]
Forced : Yes [url=/tag/7/][/url]
[url=/tag/7/][/url]
Audio #3 [url=/tag/7/][/url]
ID : 4 [url=/tag/7/][/url]
Format : AC-3 [url=/tag/7/][/url]
Format/Info : Audio Coding 3 [url=/tag/7/][/url]
Commercial name : Dolby Digital [url=/tag/7/][/url]
Codec ID : A_AC3 [url=/tag/7/][/url]
Duration : 1 h 40 min [url=/tag/7/][/url]
Bit rate mode : Constant [url=/tag/7/][/url]
Bit rate : 640 kb/s [url=/tag/7/][/url]
Channel(s) : 6 channels [url=/tag/7/][/url]
Channel layout : L R C LFE Ls Rs [url=/tag/7/][/url]
Sampling rate : 48.0 kHz [url=/tag/7/][/url]
Frame rate : 31.250 FPS (1536 SPF) [url=/tag/7/][/url]
Compression mode : Lossy [url=/tag/7/][/url]
Stream size : 460 MiB (12%) [url=/tag/7/][/url]
Language : English [url=/tag/7/][/url]
Service kind : Complete Main [url=/tag/7/][/url]
Default : No [url=/tag/7/][/url]
Forced : No [url=/tag/7/][/url]
[url=/tag/7/][/url]
Text #1 [url=/tag/7/][/url]
ID : 5 [url=/tag/7/][/url]
Format : UTF-8 [url=/tag/7/][/url]
Codec ID : S_TEXT/UTF8 [url=/tag/7/][/url]
Codec ID/Info : UTF-8 Plain Text [url=/tag/7/][/url]
Duration : 1 h 9 min [url=/tag/7/][/url]
Bit rate : 1 b/s [url=/tag/7/][/url]
Count of elements : 22 [url=/tag/7/][/url]
Stream size : 1 016 Bytes (0%) [url=/tag/7/][/url]
Title : Forced [url=/tag/7/][/url]
Language : Russian [url=/tag/7/][/url]
Default : Yes [url=/tag/7/][/url]
Forced : No [url=/tag/7/][/url]
[url=/tag/7/][/url]
Text #2 [url=/tag/7/][/url]
ID : 6 [url=/tag/7/][/url]
Format : UTF-8 [url=/tag/7/][/url]
Codec ID : S_TEXT/UTF8 [url=/tag/7/][/url]
Codec ID/Info : UTF-8 Plain Text [url=/tag/7/][/url]
Duration : 1 h 39 min [url=/tag/7/][/url]
Bit rate : 110 b/s [url=/tag/7/][/url]
Count of elements : 1544 [url=/tag/7/][/url]
Stream size : 81.1 KiB (0%) [url=/tag/7/][/url]
Title : Full [url=/tag/7/][/url]
Language : Russian [url=/tag/7/][/url]
Default : No [url=/tag/7/][/url]
Forced : No [url=/tag/7/][/url]
[url=/tag/7/][/url]
Text #3 [url=/tag/7/][/url]
ID : 7 [url=/tag/7/][/url]
Format : UTF-8 [url=/tag/7/][/url]
Codec ID : S_TEXT/UTF8 [url=/tag/7/][/url]
Codec ID/Info : UTF-8 Plain Text [url=/tag/7/][/url]
Duration : 1 h 37 min [url=/tag/7/][/url]
Bit rate : 1 b/s [url=/tag/7/][/url]
Count of elements : 25 [url=/tag/7/][/url]
Stream size : 1.10 KiB (0%) [url=/tag/7/][/url]
Title : Forced [url=/tag/7/][/url]
Language : Ukrainian [url=/tag/7/][/url]
Default : No [url=/tag/7/][/url]
Forced : Yes [url=/tag/7/][/url]
[url=/tag/7/][/url]
Text #4 [url=/tag/7/][/url]
ID : 8 [url=/tag/7/][/url]
Format : UTF-8 [url=/tag/7/][/url]
Codec ID : S_TEXT/UTF8 [url=/tag/7/][/url]
Codec ID/Info : UTF-8 Plain Text [url=/tag/7/][/url]
Duration : 1 h 39 min [url=/tag/7/][/url]
Bit rate : 100 b/s [url=/tag/7/][/url]
Count of elements : 1341 [url=/tag/7/][/url]
Stream size : 73.2 KiB (0%) [url=/tag/7/][/url]
Title : Full [url=/tag/7/][/url]
Language : Ukrainian [url=/tag/7/][/url]
Default : No [url=/tag/7/][/url]
Forced : No [url=/tag/7/][/url]
[url=/tag/7/][/url]
Text #5 [url=/tag/7/][/url]
ID : 9 [url=/tag/7/][/url]
Format : UTF-8 [url=/tag/7/][/url]
Codec ID : S_TEXT/UTF8 [url=/tag/7/][/url]
Codec ID/Info : UTF-8 Plain Text [url=/tag/7/][/url]
Duration : 1 h 39 min [url=/tag/7/][/url]
Bit rate : 68 b/s [url=/tag/7/][/url]
Count of elements : 1576 [url=/tag/7/][/url]
Stream size : 49.8 KiB (0%) [url=/tag/7/][/url]
Title : Full [url=/tag/7/][/url]
Language : English [url=/tag/7/][/url]
Default : No [url=/tag/7/][/url]
Forced : No [url=/tag/7/][/url]
[url=/tag/7/][/url]
Text #6 [url=/tag/7/][/url]
ID : 10 [url=/tag/7/][/url]
Format : UTF-8 [url=/tag/7/][/url]
Codec ID : S_TEXT/UTF8 [url=/tag/7/][/url]
Codec ID/Info : UTF-8 Plain Text [url=/tag/7/][/url]
Duration : 1 h 40 min [url=/tag/7/][/url]
Bit rate : 79 b/s [url=/tag/7/][/url]
Count of elements : 1855 [url=/tag/7/][/url]
Stream size : 58.8 KiB (0%) [url=/tag/7/][/url]
Title : SDH [url=/tag/7/][/url]
Language : English [url=/tag/7/][/url]
Default : No [url=/tag/7/][/url]
Forced : No [url=/tag/7/][/url]
[url=/tag/7/][/url]
Menu [url=/tag/7/][/url]
00:00:00.000 : en:Joe [url=/tag/7/][/url]
00:03:32.337 : en:Mom [url=/tag/7/][/url]
00:04:57.923 : en:Audition [url=/tag/7/][/url]
00:08:43.189 : en:Celebrate [url=/tag/7/][/url]
00:09:18.892 : en:The Great Beyond [url=/tag/7/][/url]
00:11:49.334 : en:Fall [url=/tag/7/][/url]
00:12:29.457 : en:You Seminar [url=/tag/7/][/url]
00:15:03.569 : en:Earth Portal [url=/tag/7/][/url]
00:17:12.031 : en:Terry [url=/tag/7/][/url]
00:18:24.687 : en:Theater [url=/tag/7/][/url]
00:19:53.984 : en:Mentee 22 [url=/tag/7/][/url]
00:21:29.663 : en:Joe s Life [url=/tag/7/][/url]
00:26:00.058 : en:Everything [url=/tag/7/][/url]
00:29:47.786 : en:Meet the Mystics [url=/tag/7/][/url]
00:36:07.916 : en:Alive [url=/tag/7/][/url]
00:38:22.383 : en:Hospital Escape [url=/tag/7/][/url]
00:39:53.307 : en:Nyc [url=/tag/7/][/url]
00:41:55.805 : en:Moonwind [url=/tag/7/][/url]
00:43:43.621 : en:Taxi [url=/tag/7/][/url]
00:44:29.166 : en:Home [url=/tag/7/][/url]
00:46:06.263 : en:Connie [url=/tag/7/][/url]
00:49:38.183 : en:Tracking [url=/tag/7/][/url]
00:50:40.537 : en:Line Up [url=/tag/7/][/url]
00:51:28.126 : en:Barber [url=/tag/7/][/url]
00:55:31.328 : en:Arrivel [url=/tag/7/][/url]
00:56:59.791 : en:Rip [url=/tag/7/][/url]
00:58:34.094 : en:Busker [url=/tag/7/][/url]
01:00:31.794 : en:Suit [url=/tag/7/][/url]
01:04:48.551 : en:Ready for Earth [url=/tag/7/][/url]
01:07:53.361 : en:Pursuit [url=/tag/7/][/url]
01:09:15.484 : en:Betrayed [url=/tag/7/][/url]
01:12:33.974 : en:The Gig [url=/tag/7/][/url]
01:15:32.361 : en:Lost [url=/tag/7/][/url]
01:17:23.639 : en:Epiphany [url=/tag/7/][/url]
01:21:15.453 : en:Ship Chase [url=/tag/7/][/url]
01:22:57.806 : en:Rescue 22 [url=/tag/7/][/url]
01:26:43.323 : en:Earthbound [url=/tag/7/][/url]
01:28:32.306 : en:Thank You [url=/tag/7/][/url]
01:30:13.574 : en:End Credits



Скриншоты:
[+] Всего файлов в раздаче - 1:
Soul (2020).mkv3.90 GB

Показать еще раздачи по запросу душа:
2021-04-01 U Душа / Soul (2020) BDRip 720p от ExKinoRay | iTunes | D, HDRezka Studio 3.24 GB ↑ 63 ↓ 17
2021-04-01 U Душа / Soul (2020) BDRip 720p от ELEKTRI4KA | iTunes 5.80 GB ↑ 73 ↓ 30
2021-04-01 U Душа / Soul (2020) BDRip от MegaPeer | iTunes 1.42 GB ↑ 69 ↓ 20
2021-04-01 U Душа / Soul (2020) BDRip 1080p от ELEKTRI4KA | iTunes 9.94 GB ↑ 38 ↓ 28
2021-04-01 U Душа / Soul (2020) BDRip 1080p от селезень | D, P | iTunes 12.14 GB ↑ 55 ↓ 19
2021-03-24 U Душа / Soul (2020) BDRip-AVC от ExKinoRay | HDRezka Studio 2.40 GB ↑ 26 ↓ 4
2021-03-22 U Душа / Soul (2020) BDRemux 1080p | HDRezka Studio 20.68 GB ↑ 24 ↓ 6

Отзывы
Зарегистрируйтесь чтобы добавить комментарий.
Загрузите программу
  uTorrent.exe
Обратная связь
Copyleft ©