↑↓torrent.by
Поиск
Логин: Регистрация
Пароль: Восстановить пароль

Светлячок (2019) WEBRip 1080p от ELEKTRI4KА

Скачать svetlyachok-2019-webrip-1080p-ot-elektri4ka.torrent
U Магнитная ссылка Размер: 3.99 GB Раздают: 64 Качают: 31 Добавлен: 2021-04-05 06:02:49
Светлячок (2019) WEBRip 1080p от ELEKTRI4KА

Название: Светлячок
Год выхода: 2019
Жанр: Драма
Режиссер: Мария Кравченко
В ролях: Арина Фёдорова, Андрей Грызлов, Анна Глаубэ, Татьяна Казючиц, Марк Попов, Сергей Степин, Виталия Корниенко, Алина Воскресенская, Сергей Беляев, Анна Якунина

О фильме: Света Василькова — мамин «Светлячок» — переезжает из крошечной деревни в город, чтобы учиться в элитной школе. Появление странной новенькой в красной шапке, которая кажется чересчур улыбчивой и наивной, сразу меняет привычную жизнь класса. Будущая элита общества вынуждена взглянуть на себя со стороны и обнаружить не самые лучшие черты. К этому готовы не все, и в группе происходит раскол. Чтобы как-то вернуть внимание парня, красотка и лидер компании Женя решает раскрыть секрет девушки.

Выпущено: Россия / Киностудия им. М. Горького
Продолжительность: 01:28:39
Озвучивание: Оригинальное | START

Файл
Формат: MKV
Качество: WEBRip 1080p
Видео: MPEG-4 AVC, 6000 Kb/s, 1920x804
Аудио #1: Russian: 48 kHz, AC3 Dolby Digital, 2/0 (L, R) ch, ~192 Kbps | START
Аудио #2: Russian: 48 kHz, Advanced Audio Codec, 2/0 (L, R) ch, ~254 Kbps | START
Субтитры: Нет
Дополнительно: Нет

Релиз: &


[+] MediaInfo:
Complete name : Svetlyachok.2019.WEBRip.1080p.ELEKTRI4KA.UNIONGANG.mkv
Format : Matroska
Format version : Version 4
File size : 3.99 GiB
Duration : 1 h 28 min
Overall bit rate : 6 449 kb/s
Movie name : Svetlyachok.2019.WEBRip.1080p.ELEKTRI4KA.UNIONGANG.
Encoded date : UTC 2021-04-04 13:31:35
Writing application : mkvmerge v8.3.0 ('Over the Horizon') 64bit
Writing library : libebml v1.3.1 + libmatroska v1.4.2

Video
ID : 1
Format : AVC
Format/Info : Advanced Video Codec
Format profile : High@L4.1
Format settings : CABAC / 4 Ref Frames
Format settings, CABAC : Yes
Format settings, Reference frames : 4 frames
Codec ID : V_MPEG4/ISO/AVC
Duration : 1 h 28 min
Bit rate : 6 000 kb/s
Width : 1 920 pixels
Height : 804 pixels
Display aspect ratio : 2.40:1
Frame rate mode : Constant
Frame rate : 25.000 FPS
Color space : YUV
Chroma subsampling : 4:2:0
Bit depth : 8 bits
Scan type : Progressive
Bits/(Pixel*Frame) : 0.155
Stream size : 3.72 GiB (93%)
Writing library : x264 core 157 r2958 57baac4
Encoding settings : cabac=1 / ref=3 / deblock=1:0:0 / analyse=0x3:0x113 / me=hex / subme=7 / psy=1 / psy_rd=1.00:0.20 / mixed_ref=1 / me_range=16 / chroma_me=1 / trellis=1 / 8x8dct=1 / cqm=0 / deadzone=21, 11 / fast_pskip=0 / chroma_qp_offset=-3 / threads=33 / lookahead_threads=5 / sliced_threads=0 / nr=0 / decimate=0 / interlaced=0 / bluray_compat=0 / constrained_intra=0 / bframes=3 / b_pyramid=2 / b_adapt=2 / b_bias=0 / direct=3 / weightb=0 / open_gop=0 / weightp=2 / keyint=250 / keyint_min=25 / scenecut=40 / intra_refresh=0 / rc=2pass / mbtree=0 / bitrate=6000 / ratetol=1.0 / qcomp=0.60 / qpmin=0 / qpmax=69 / qpstep=4 / cplxblur=20.0 / qblur=0.5 / ip_ratio=1.40 / pb_ratio=1.30 / aq=1:1.00
Default : Yes
Forced : No
Color range : Limited
Color primaries : BT.709
Transfer characteristics : BT.709
Matrix coefficients : BT.709

Audio #1
ID : 2
Format : AC-3
Format/Info : Audio Coding 3
Commercial name : Dolby Digital
Codec ID : A_AC3
Duration : 1 h 28 min
Bit rate mode : Constant
Bit rate : 192 kb/s
Channel(s) : 2 channels
Channel layout : L R
Sampling rate : 48.0 kHz
Frame rate : 31.250 FPS (1536 SPF)
Compression mode : Lossy
Stream size : 122 MiB (3%)
Title : Original AC3 (START)
Language : Russian
Service kind : Complete Main
Default : Yes
Forced : Yes

Audio #2
ID : 3
Format : AAC LC
Format/Info : Advanced Audio Codec Low Complexity
Codec ID : A_AAC-2
Duration : 1 h 28 min
Bit rate : 254 kb/s
Channel(s) : 2 channels
Channel layout : L R
Sampling rate : 48.0 kHz
Frame rate : 46.875 FPS (1024 SPF)
Compression mode : Lossy
Stream size : 161 MiB (4%)
Title : Original AAC (START)
Language : Russian
Default : No
Forced : No



Скриншоты:
[+] Всего файлов в раздаче - 1:
Svetlyachok.2019.WEBRip.1080p.ELEKTRI4KA.UNIONGANG.mkv3.99 GB

Похожие раздачи по запросу - светлячок:
2021-04-05 U Светлячок (2019) WEBRip от ELEKTRI4KА 1.37 GB ↑ 83 ↓ 22

Отзывы
Зарегистрируйтесь чтобы добавить комментарий.
Загрузите программу
  uTorrent.exe
Обратная связь
Copyleft ©