↑↓torrent.by
Поиск
Логин: Регистрация
Пароль: Восстановить пароль

Discovery: Последние тайны долины Царей / Valley of the Kings: The Lost Tombs (2021) HDTV 1080i | P2

Скачать discovery-poslednie-tayny-doliny-carey-valley-of-the-kings-lost-tombs-2021-hdtv-1080i-p2.torrent
U Магнитная ссылка Размер: 6.66 GB Раздают: 20 Качают: 8 Добавлен: 2021-04-07 05:09:04
Discovery: Последние тайны долины Царей / Valley of the Kings: The Lost Tombs (2021) HDTV  1080i | P2

Название: Последние тайны долины Царей
Оригинальное название: Valley of the Kings: The Lost Tombs
Год выхода: 2021
Жанр: Документальнй, история, археология, египтология
Режиссер: Катерина Туррони

О фильме:
Команда ведущих экспертов проводит раскопки в восточной и западной Долинах царей, чтобы открыть их последние тайны и составить подробную карту и являются хроникой крупнейших раскопок в Египте за 100 лет. Доктор Захи Хавасс исследует печально известную Долину царей в поисках сокровищ королевы Нефертити среди других бесценных артефактов из Нового Королевства.


Страна: Великобритания
Студия: Blink Films
Продолжительность: 01:28:09
Перевод: Профессиональный (двухголосый закадровый)

Файл
Кодек: AVC/H.264
Качество: HDTV  1080i
Видео: 1920x1080 (16:9), 25 fps, AVC (H.264), High@L4, 9832 kbps, 0.190 bit/pixel
Звук:
Русский 48.0 KHz, AC3 6 ch (Front: L C R, Side: L R, LFE) ch, ~384.00 kbps avg
Русский 48 kHz, MPEG Layer 2, 2 ch, ~192.00 kbps avg
Английский 48 kHz, MPEG Layer 2, 2 ch, ~192.00 kbps avg

Семпл

Релиз от: kyba
[+] MediaInfo
Complete name               : F:НаладкиПоследние тайны долины Царей.mkv
Format                      : Matroska
Format version              : Version 4 / Version 2
File size                   : 6.66 GiB
Duration                    : 1 h 28 min
Overall bit rate            : 10.8 Mb/s
Encoded date                : UTC 2021-04-01 15:40:41
Writing application         : mkvmerge v6.6.0 ('The Edge Of The In Between') built on Dec  1 2013 17:55:00
Writing library             : libebml v1.3.0 + libmatroska v1.4.1

Video
ID                          : 1
Format                      : AVC
Format/Info                 : Advanced Video Codec
Format profile              : High@L4
Format settings             : CABAC / 4 Ref Frames
Format settings, CABAC      : Yes
Format settings, RefFrames  : 4 frames
Format settings, GOP        : M=3, N=24
Codec ID                    : V_MPEG4/ISO/AVC
Duration                    : 1 h 28 min
Bit rate                    : 9 832 kb/s
Width                       : 1 920 pixels
Height                      : 1 080 pixels
Display aspect ratio        : 16:9
Frame rate mode             : Constant
Frame rate                  : 25.000 FPS
Standard                    : Component
Color space                 : YUV
Chroma subsampling          : 4:2:0
Bit depth                   : 8 bits
Scan type                   : MBAFF
Scan type, store method     : Interleaved fields
Scan order                  : Top Field First
Bits/(Pixel*Frame)          : 0.190
Stream size                 : 6.05 GiB (91%)
Default                     : Yes
Forced                      : No
Color range                 : Limited
Color primaries             : BT.709
Transfer characteristics    : BT.709
Matrix coefficients         : BT.709

Audio #1
ID                          : 2
Format                      : AC-3
Format/Info                 : Audio Coding 3
Format settings, Endianness : Big
Codec ID                    : A_AC3
Duration                    : 1 h 28 min
Bit rate mode               : Constant
Bit rate                    : 384 kb/s
Channel(s)                  : 6 channels
Channel positions           : Front: L C R, Side: L R, LFE
Sampling rate               : 48.0 kHz
Frame rate                  : 31.250 FPS (1536 SPF)
Bit depth                   : 16 bits
Compression mode            : Lossy
Stream size                 : 242 MiB (4%)
Language                    : Russian
Service kind                : Complete Main
Default                     : Yes
Forced                      : No

Audio #2
ID                          : 3
Format                      : MPEG Audio
Format version              : Version 1
Format profile              : Layer 2
Codec ID                    : A_MPEG/L2
Codec ID/Hint               : MP2
Duration                    : 1 h 28 min
Bit rate mode               : Constant
Bit rate                    : 192 kb/s
Channel(s)                  : 2 channels
Sampling rate               : 48.0 kHz
Compression mode            : Lossy
Stream size                 : 121 MiB (2%)
Language                    : Russian
Default                     : No
Forced                      : No

Audio #3
ID                          : 4
Format                      : MPEG Audio
Format version              : Version 1
Format profile              : Layer 2
Codec ID                    : A_MPEG/L2
Codec ID/Hint               : MP2
Duration                    : 1 h 28 min
Bit rate mode               : Constant
Bit rate                    : 192 kb/s
Channel(s)                  : 2 channels
Sampling rate               : 48.0 kHz
Compression mode            : Lossy
Stream size                 : 121 MiB (2%)
Language                    : English
Default                     : No
Forced                      : No



Скриншоты:
[+] Всего файлов в раздаче - 1:
Последние тайны долины Царей.mkv6.66 GB

Похожие раздачи по запросу - discovery:
2021-03-21 U Открытие ведьм / A Discovery of Witches [S01] (2018) HDRip | LostFilm 4.81 GB ↑ 41 ↓ 13
2019-05-26 U Pink Floyd - Discovery [16CD Box EMI Japan] (2011) FLAC 5.07 GB ↑ 528 ↓ 381
2018-11-30 U Открытие / The Discovery (2017) WEBRip-AVC от OlLanDGroup | NewStudio 1.46 GB ↑ 212 ↓ 37
2017-04-03 U Открытие / The Discovery (2017) WEBRip 1080p от qqss44 | NewStudio 4К4.42 GB ↑ 913 ↓ 12

Отзывы
Зарегистрируйтесь чтобы добавить комментарий.
Загрузите программу
  uTorrent.exe
Обратная связь
Copyleft ©