↑↓torrent.by
Поиск
Логин: Регистрация
Пароль: Восстановить пароль

Тело / The Body / El cuerpo (2012) BDRip 720p | iTunes

Скачать telo-the-body-el-cuerpo-2012-bdrip-720p-itunes.torrent
U Магнитная ссылка Размер: 6.49 GB Раздают: 144 Качают: 33 Добавлен: 2021-04-08 05:35:11
Тело / The Body / El cuerpo (2012) BDRip 720p | iTunes

Название: Тело
Оригинальное название: The Body / El cuerpo
Год выхода: 2012
Жанр: Триллер, детектив, криминал
Страна: Испания
Перевод: Дублированный | iTunes
Продолжительность: 01:51:11
Режиссер: Ориол Паоло
В ролях: Хосе Коронадо, Уго Сильва, Белен Руэда, Аура Гарридо, Мигель Хелаберт, Хуан Пабло Шук, Ориоль Вила, Карлота Ольсина, Патрисия Баргальо, Миа Эстеве и др.

О фильме: Автомобиль сбивает человека, в панике убегающего от кого-то или от чего-то. Прибывшие на место полицейские выясняют, что сбитый бедолага — ночной сторож из близлежащего морга. Так что так напугало несчастного? И куда делся из отсека №3 недавно привезенный в морг труп?

Файл
Качество: BDRip 720p | The.Body.2012.REMUX
Видео: x264, 1280x536, 7527 kbps, 24,000 fps
Звук#1: русский, AC3, 5.1 ch, 48 kHz, 384 kbps | iTunes
Звук#2: испанский, AC3, 5.1 ch, 48 kHz, 448 kbps | оригинал
Субтитры: русские (полные)

Рип и релиз от:


[+] MI
Общее
Уникальный идентификатор                 : 179877559242303842793312246965880437443 (0x8753286367C06AD58D37350E69833AC3)
Полное имя                               : F:TorrentTeloBDRip720p.mkv
Формат                                   : Matroska
Версия формата                           : Version 4
Размер файла                             : 6,49 Гбайт
Продолжительность                        : 1 ч. 51 м.
Общий поток                              : 8 359 Кбит/сек
Дата кодирования                         : UTC 2021-04-07 13:03:17
Программа кодирования                    : mkvmerge v9.5.0 ('Quiet Fire') 64bit
Библиотека кодирования                   : libebml v1.3.4 + libmatroska v1.4.5

Видео
Идентификатор                            : 1
Формат                                   : AVC
Формат/Информация                        : Advanced Video Codec
Профиль формата                          : High@L4.1
Настройки формата                        : CABAC / 12 Ref Frames
Параметр CABAC формата                   : Да
Параметр RefFrames формата               : 12 кадров
Идентификатор кодека                     : V_MPEG4/ISO/AVC
Продолжительность                        : 1 ч. 51 м.
Битрейт                                  : 7 527 Кбит/сек
Ширина                                   : 1 280 пикселей
Высота                                   : 536 пикселей
Соотношение сторон                       : 2,40:1
Режим частоты кадров                     : Постоянный
Частота кадров                           : 24,000 кадра/сек
Цветовое пространство                    : YUV
Субдискретизация насыщенности            : 4:2:0
Битовая глубина                          : 8 бит
Тип развёртки                            : Прогрессивная
Бит/(Пиксели*Кадры)                      : 0.457
Размер потока                            : 5,85 Гбайт (90%)
Заголовок                                : Sisendrovich(R)
Библиотека кодирования                   : x264 core 161 r3048 b86ae3c
Настройки программы                      : cabac=1 / ref=12 / deblock=1:-1:-1 / analyse=0x3:0x133 / me=tesa / subme=11 / psy=1 / psy_rd=1.00:0.00 / mixed_ref=1 / me_range=32 / chroma_me=1 / trellis=2 / 8x8dct=1 / cqm=0 / deadzone=21,11 / fast_pskip=0 / chroma_qp_offset=-2 / threads=17 / lookahead_threads=4 / sliced_threads=0 / nr=0 / decimate=0 / interlaced=0 / bluray_compat=0 / constrained_intra=0 / bframes=12 / b_pyramid=2 / b_adapt=2 / b_bias=0 / direct=3 / weightb=1 / open_gop=0 / weightp=2 / keyint=240 / keyint_min=23 / scenecut=40 / intra_refresh=0 / rc=2pass / mbtree=0 / bitrate=7527 / ratetol=1.0 / qcomp=0.70 / qpmin=0 / qpmax=69 / qpstep=4 / cplxblur=20.0 / qblur=0.5 / ip_ratio=1.40 / pb_ratio=1.30 / aq=3:0.80
Язык                                     : Spanish
Default                                  : Да
Forced                                   : Нет

Аудио #1
Идентификатор                            : 2
Формат                                   : AC-3
Формат/Информация                        : Audio Coding 3
Коммерческое название                    : Dolby Digital
Идентификатор кодека                     : A_AC3
Продолжительность                        : 1 ч. 51 м.
Вид битрейта                             : Постоянный
Битрейт                                  : 384 Кбит/сек
Каналы                                   : 6 каналов
Channel layout                           : L R C LFE Ls Rs
Частота                                  : 48,0 КГц
Частота кадров                           : 31,250 кадров/сек (1536 SPF)
Метод сжатия                             : С потерями
Размер потока                            : 305 Мбайт (5%)
Заголовок                                : rus
Язык                                     : Russian
Default                                  : Да
Forced                                   : Нет

Аудио #2
Идентификатор                            : 3
Формат                                   : AC-3
Формат/Информация                        : Audio Coding 3
Коммерческое название                    : Dolby Digital
Идентификатор кодека                     : A_AC3
Продолжительность                        : 1 ч. 51 м.
Вид битрейта                             : Постоянный
Битрейт                                  : 448 Кбит/сек
Каналы                                   : 6 каналов
Channel layout                           : L R C LFE Ls Rs
Частота                                  : 48,0 КГц
Частота кадров                           : 31,250 кадров/сек (1536 SPF)
Метод сжатия                             : С потерями
Размер потока                            : 356 Мбайт (5%)
Заголовок                                : spa
Язык                                     : Spanish
Default                                  : Нет
Forced                                   : Нет

Текст
Идентификатор                            : 4
Формат                                   : UTF-8
Идентификатор кодека                     : S_TEXT/UTF8
Идентификатор кодека/Информация          : UTF-8 Plain Text
Продолжительность                        : 1 ч. 44 м.
Битрейт                                  : 101 бит/сек
Count of elements                        : 1272
Размер потока                            : 78,0 Кбайт (0%)
Заголовок                                : rusFull
Язык                                     : Russian
Default                                  : Нет
Forced                                   : Нет

Меню
00:00:00.000                             : en:00:00:00.000
00:08:30.000                             : en:00:08:30.000
00:18:20.000                             : en:00:18:20.000
00:26:33.000                             : en:00:26:33.000
00:36:05.000                             : en:00:36:05.000
00:45:13.000                             : en:00:45:13.000
00:52:10.000                             : en:00:52:10.000
01:00:11.000                             : en:01:00:11.000
01:08:29.000                             : en:01:08:29.000
01:16:49.000                             : en:01:16:49.000
01:28:19.000                             : en:01:28:19.000
01:34:22.000                             : en:01:34:22.000



Скриншоты:
[+] Всего файлов в раздаче - 1:
TeloBDRip720p.mkv6.49 GB

Похожие раздачи по запросу - тело:
2021-04-08 U Тело / The Body / El cuerpo (2012) BDRip-AVC | iTunes 2.42 GB ↑ 199 ↓ 55
2021-04-08 U Тело / The Body / El cuerpo (2012) BDRemux 1080р от ELEKTRI4KA | iTunes 28.59 GB ↑ 35 ↓ 21
2021-04-08 U Тело / The Body / El cuerpo (2012) BDRip от ELEKTRI4KA | iTunes 2.18 GB ↑ 58 ↓ 11
2021-04-08 U Тело / The Body / El cuerpo (2012) BDRip-AVC от ExKinoRay | iTunes 746.89 MB ↑ 82 ↓ 14
2021-04-08 U Тело / The Body / El cuerpo (2012) HDRip от ELEKTRI4KA | iTunes 1.46 GB ↑ 141 ↓ 24
2021-04-08 U Тело / The Body / El cuerpo (2012) BDRip 1080p | iTunes 13.14 GB ↑ 223 ↓ 76

Отзывы
Зарегистрируйтесь чтобы добавить комментарий.
Загрузите программу
  uTorrent.exe
Обратная связь
Copyleft ©