↑↓torrent.by
Поиск
Логин: Регистрация
Пароль: Восстановить пароль

Тело / The Body / El cuerpo (2012) BDRip-AVC от ExKinoRay | iTunes

Скачать telo-the-body-el-cuerpo-2012-bdrip-avc-ot-exkinoray-itunes.torrent
U Магнитная ссылка Размер: 746.89 MB Раздают: 82 Качают: 14 Добавлен: 2021-04-08 05:35:17
Тело / The Body / El cuerpo (2012) BDRip-AVC от ExKinoRay | iTunes

Название: Тело
Оригинальное название: El cuerpo / The Body
Год выхода: 2012
Жанр:  Триллер, детектив
Режиссер: Ориол Паоло
В ролях: Белен Руэда, Уго Силва, Аура Гарридо, Хосе Коронадо, Хуан Пабло Шук, Наусикая Боннин, Кристина Пласас, Ориол Вила, Патриция Баргальо, Хорди Планас

О фильме :
Молодой профессор-химик, только что потерявший жену, узнает, что тело его супруги бесследно пропало из морга. Полиция начинает расследование, однако единственный, кто мог пролить свет на это происшествие, ночной сторож морга, был сбит машиной, когда в панике убегал оттуда, и сейчас находится в коме. Какие-либо улики, которые могли бы помочь в расследовании, полностью отсутствуют. Тем не менее, полицейский следователь и вдовец, вместе, пытаются проникнуть в причины смерти женщины и тайну исчезновения её тела.

Страна: Испания
Студия: Antena 3 Films, Canal+ España…
Продолжительность: 01:51:12
Перевод: Дублированный | iTunes

Файл
Формат: MKV
Качество: BDRip-AVC
Видео: MPEG-4 AVC, 752x316,  861 Кбит/с
Аудио:  AAC-HE, 2 ch,  76 Кбит/с
Субтитры: Русские, английские

Релиз:


[+] MI
Общее
Уникальный идентификатор : 308435276641817310168209899805068754397 (0xE80A79388A44FDC64640B6EEDFEBFDDD)
Полное имя : D:MOVIESEl.cuerpo.2012.BDRip-AVC.ExKinoRay.mkv
Формат : Matroska
Версия формата : Version 4
Размер файла : 747 Мбайт
Продолжительность : 1 ч. 51 м.
Общий поток : 938 Кбит/сек
Дата кодирования : UTC 2021-04-07 15:58:29
Программа кодирования : mkvmerge v45.0.0 ('Heaven in Pennies') 64-bit
Библиотека кодирования : libebml v1.3.10 + libmatroska v1.5.2

Видео
Идентификатор : 1
Формат : AVC
Формат/Информация : Advanced Video Codec
Профиль формата : High@L4.1
Настройки формата : CABAC / 10 Ref Frames
Параметр CABAC формата : Да
Параметр RefFrames формата : 10 кадров
Идентификатор кодека : V_MPEG4/ISO/AVC
Продолжительность : 1 ч. 51 м.
Битрейт : 861 Кбит/сек
Ширина : 752 пикселя
Высота : 316 пикселей
Соотношение сторон : 2,40:1
Режим частоты кадров : Постоянный
Частота кадров : 24,000 кадра/сек
Цветовое пространство : YUV
Субдискретизация насыщенности : 4:2:0
Битовая глубина : 8 бит
Тип развёртки : Прогрессивная
Бит/(Пиксели*Кадры) : 0.151
Размер потока : 685 Мбайт (92%)
Библиотека кодирования : x264 core 152 r2851 ba24899
Настройки программы : cabac=1 / ref=10 / deblock=1:-2:-2 / analyse=0x3:0x133 / me=umh / subme=11 / psy=1 / psy_rd=1.00:0.09 / mixed_ref=1 / me_range=32 / chroma_me=1 / trellis=2 / 8x8dct=1 / cqm=0 / deadzone=21,11 / fast_pskip=0 / chroma_qp_offset=-3 / threads=6 / lookahead_threads=1 / sliced_threads=0 / nr=0 / decimate=0 / interlaced=0 / bluray_compat=0 / constrained_intra=0 / bframes=10 / b_pyramid=2 / b_adapt=2 / b_bias=0 / direct=3 / weightb=1 / open_gop=0 / weightp=2 / keyint=240 / keyint_min=23 / scenecut=40 / intra_refresh=0 / rc_lookahead=40 / rc=2pass / mbtree=0 / bitrate=861 / ratetol=1.0 / qcomp=0.60 / qpmin=0 / qpmax=69 / qpstep=4 / cplxblur=20.0 / qblur=0.5 / vbv_maxrate=50000 / vbv_bufsize=62500 / nal_hrd=none / filler=0 / ip_ratio=1.40 / pb_ratio=1.30 / aq=1:1.00
Default : Да
Forced : Нет

Аудио
Идентификатор : 2
Формат : AAC LC SBR
Формат/Информация : Advanced Audio Codec Low Complexity with Spectral Band Replication
Коммерческое название : HE-AAC
Настройки формата : Explicit
Идентификатор кодека : A_AAC-2
Продолжительность : 1 ч. 51 м.
Битрейт : 76,0 Кбит/сек
Каналы : 2 канала
Channel layout : L R
Частота : 48,0 КГц
Частота кадров : 23,438 кадра/сек (2048 SPF)
Метод сжатия : С потерями
Задержка видео : 31 мс.
Размер потока : 60,5 Мбайт (8%)
Язык : Russian
Default : Да
Forced : Нет

Текст #1
Идентификатор : 3
Формат : UTF-8
Идентификатор кодека : S_TEXT/UTF8
Идентификатор кодека/Информация : UTF-8 Plain Text
Продолжительность : 1 ч. 44 м.
Битрейт : 93 бит/сек
Count of elements : 1306
Размер потока : 71,7 Кбайт (0%)
Заголовок : Full (Perevodman)
Язык : Russian
Default : Нет
Forced : Нет

Текст #2
Идентификатор : 4
Формат : UTF-8
Идентификатор кодека : S_TEXT/UTF8
Идентификатор кодека/Информация : UTF-8 Plain Text
Продолжительность : 1 ч. 44 м.
Битрейт : 102 бит/сек
Count of elements : 1272
Размер потока : 78,5 Кбайт (0%)
Заголовок : Full (marimerci)
Язык : Russian
Default : Нет
Forced : Нет

Текст #3
Идентификатор : 5
Формат : UTF-8
Идентификатор кодека : S_TEXT/UTF8
Идентификатор кодека/Информация : UTF-8 Plain Text
Продолжительность : 1 ч. 44 м.
Битрейт : 54 бит/сек
Count of elements : 1268
Размер потока : 41,3 Кбайт (0%)
Язык : English
Default : Нет
Forced : Нет

Меню
00:00:00.000 : es:Chapter 01
00:04:36.817 : es:Chapter 02
00:09:16.638 : es:Chapter 03
00:14:39.586 : es:Chapter 04
00:21:55.689 : es:Chapter 05
00:26:34.342 : es:Chapter 06
00:34:23.893 : es:Chapter 07
00:41:06.963 : es:Chapter 08
00:48:30.824 : es:Chapter 09
00:56:45.652 : es:Chapter 10
01:05:11.073 : es:Chapter 11
01:11:21.903 : es:Chapter 12
01:19:30.724 : es:Chapter 13
01:25:00.886 : es:Chapter 14
01:31:49.837 : es:Chapter 15
01:37:32.889 : es:Chapter 16
01:44:44.737 : es:Chapter 17




Скриншоты:
[+] Всего файлов в раздаче - 1:
El.cuerpo.2012.BDRip-AVC.ExKinoRay.mkv746.89 MB

Похожие раздачи по запросу - тело:
2021-04-08 U Тело / The Body / El cuerpo (2012) BDRip-AVC | iTunes 2.42 GB ↑ 199 ↓ 55
2021-04-08 U Тело / The Body / El cuerpo (2012) BDRemux 1080р от ELEKTRI4KA | iTunes 28.59 GB ↑ 35 ↓ 21
2021-04-08 U Тело / The Body / El cuerpo (2012) BDRip от ELEKTRI4KA | iTunes 2.18 GB ↑ 58 ↓ 11
2021-04-08 U Тело / The Body / El cuerpo (2012) BDRip 720p | iTunes 6.49 GB ↑ 144 ↓ 33
2021-04-08 U Тело / The Body / El cuerpo (2012) HDRip от ELEKTRI4KA | iTunes 1.46 GB ↑ 141 ↓ 24
2021-04-08 U Тело / The Body / El cuerpo (2012) BDRip 1080p | iTunes 13.14 GB ↑ 223 ↓ 76

Отзывы
Зарегистрируйтесь чтобы добавить комментарий.
Загрузите программу
  uTorrent.exe
Обратная связь
Copyleft ©