↑↓torrent.by
Поиск
Логин: Регистрация
Пароль: Восстановить пароль

Снега больше не будет / Śniegu już nigdy nie będzie / Never Gonna Snow Again (2020) WEBRip 1080p | Line

Скачать snega-bolshe-ne-budet-niegu-ju-nigdy-nie-b-dzie-never-gonna-snow-again-2020-webrip-1080p-line.torrent
U Магнитная ссылка Размер: 2.33 GB Раздают: 50 Качают: 17 Добавлен: 2021-04-08 05:35:32
Снега больше не будет / Śniegu już nigdy nie będzie / Never Gonna Snow Again (2020) WEBRip 1080p | Line

Название: Снега больше не будет
Оригинальное название: Śniegu już nigdy nie będzie
Год выхода: 2020
Жанр: драма, комедия

Режиссер: Малгожата Шумовска, Михал Энглерт

В ролях: Алек Утгофф, Майя Осташевска, Агата Кулеша, Катажина Фигура, Вероника Розати, Лукаш Симлат, Кшиштоф Чечот, Анджей Хыра, Мацей Дросио, Оляф Мархвицкий

О фильме:
Женя был в Чернобыле в момент аварии. Возможно, из-за нее он обрел особые способности. Сейчас он – успешный массажист, который лечит не только тело, но и душу. Богатые клиенты доверяют ему свои тревоги, переживания и сокровенные секреты. Так Женя превратился в гуру: одинокие и несчастные, несмотря на своё богатство, люди спешат на массаж, чтобы услышать, как жить дальше.

Страна: Польша, Германия
Продолжительность: 01:55:41
Перевод:  Профессиональный дублированный | Line

Файл
Кодек: x.264
Качество: WEBRip 1080p
Видео: AVC, 1920x804 (2.40:1), 25.000 fps, 2 500 kb/s
Аудио 1: AC3, 48.0 kHz, 2 ch, 192 kb/s (Russian)
Аудио 2: AC3, 48.0 kHz, 2 ch, 192 kb/s (Polish)
Субтитры: Английские, польские

Рекламы нет | Семпл


[+] MI
General
Unique ID                                : 207096198141227311641818155979148520331 (0x9BCD46E55617995892545CDDDCC66B8B)
Complete name                            : Never.Gonna.Snow.Again.2020.WEBRip.1080p.mkv
Format                                   : Matroska
Format version                           : Version 4
File size                                : 2.33 GiB
Duration                                 : 1 h 55 min
Overall bit rate                         : 2 884 kb/s
Encoded date                             : UTC 2021-04-07 13:43:53
Writing application                      : mkvmerge v8.3.0 ('Over the Horizon') 64bit
Writing library                          : libebml v1.3.1 + libmatroska v1.4.2

Video
ID                                       : 1
Format                                   : AVC
Format/Info                              : Advanced Video Codec
Format profile                           : High@L5.1
Format settings                          : CABAC / 4 Ref Frames
Format settings, CABAC                   : Yes
Format settings, ReFrames                : 4 frames
Codec ID                                 : V_MPEG4/ISO/AVC
Duration                                 : 1 h 55 min
Bit rate                                 : 2 500 kb/s
Width                                    : 1 920 pixels
Height                                   : 804 pixels
Display aspect ratio                     : 2.40:1
Frame rate mode                          : Constant
Frame rate                               : 25.000 FPS
Color space                              : YUV
Chroma subsampling                       : 4:2:0
Bit depth                                : 8 bits
Scan type                                : Progressive
Bits/(Pixel*Frame)                       : 0.065
Stream size                              : 2.02 GiB (87%)
Writing library                          : x264 core 157 r2935 545de2f
Encoding settings                        : cabac=1 / ref=2 / deblock=1:-1:-1 / analyse=0x3:0x113 / me=hex / subme=6 / psy=1 / psy_rd=1.00:0.15 / mixed_ref=1 / me_range=16 / chroma_me=1 / trellis=1 / 8x8dct=1 / cqm=0 / deadzone=21,11 / fast_pskip=1 / chroma_qp_offset=-3 / threads=12 / lookahead_threads=2 / sliced_threads=0 / nr=0 / decimate=1 / interlaced=0 / bluray_compat=0 / constrained_intra=0 / bframes=3 / b_pyramid=2 / b_adapt=1 / b_bias=0 / direct=1 / weightb=1 / open_gop=0 / weightp=1 / keyint=250 / keyint_min=25 / scenecut=40 / intra_refresh=0 / rc_lookahead=30 / rc=2pass / mbtree=1 / bitrate=2500 / ratetol=1.0 / qcomp=0.60 / qpmin=0 / qpmax=69 / qpstep=4 / cplxblur=20.0 / qblur=0.5 / vbv_maxrate=300000 / vbv_bufsize=300000 / nal_hrd=none / filler=0 / ip_ratio=1.40 / aq=1:1.00
Default                                  : Yes
Forced                                   : No
Color range                              : Limited
Color primaries                          : BT.709
Transfer characteristics                 : BT.709
Matrix coefficients                      : BT.709

Audio #1
ID                                       : 2
Format                                   : AC-3
Format/Info                              : Audio Coding 3
Commercial name                          : Dolby Digital
Codec ID                                 : A_AC3
Duration                                 : 1 h 55 min
Bit rate mode                            : Constant
Bit rate                                 : 192 kb/s
Channel(s)                               : 2 channels
Channel layout                           : L R
Sampling rate                            : 48.0 kHz
Frame rate                               : 31.250 FPS (1536 SPF)
Bit depth                                : 16 bits
Compression mode                         : Lossy
Stream size                              : 159 MiB (7%)
Title                                    : DUB (Line)
Language                                 : Russian
Service kind                             : Complete Main
Default                                  : Yes
Forced                                   : No

Audio #2
ID                                       : 3
Format                                   : AC-3
Format/Info                              : Audio Coding 3
Commercial name                          : Dolby Digital
Codec ID                                 : A_AC3
Duration                                 : 1 h 55 min
Bit rate mode                            : Constant
Bit rate                                 : 192 kb/s
Channel(s)                               : 2 channels
Channel layout                           : L R
Sampling rate                            : 48.0 kHz
Frame rate                               : 31.250 FPS (1536 SPF)
Bit depth                                : 16 bits
Compression mode                         : Lossy
Stream size                              : 159 MiB (7%)
Language                                 : Polish
Service kind                             : Complete Main
Default                                  : No
Forced                                   : No

Text #1
ID                                       : 4
Format                                   : UTF-8
Codec ID                                 : S_TEXT/UTF8
Codec ID/Info                            : UTF-8 Plain Text
Duration                                 : 1 h 46 min
Bit rate                                 : 21 b/s
Count of elements                        : 673
Stream size                              : 16.9 KiB (0%)
Language                                 : English
Default                                  : No
Forced                                   : No

Text #2
ID                                       : 5
Format                                   : UTF-8
Codec ID                                 : S_TEXT/UTF8
Codec ID/Info                            : UTF-8 Plain Text
Duration                                 : 1 h 39 min
Bit rate                                 : 6 b/s
Count of elements                        : 147
Stream size                              : 4.37 KiB (0%)
Language                                 : Polish
Default                                  : No
Forced                                   : No



Скриншоты:
[+] Всего файлов в раздаче - 1:
Never.Gonna.Snow.Again.2020.WEBRip.1080p.mkv2.33 GB

Похожие раздачи по запросу - снега:
2021-04-09 U Снега больше не будет / Śniegu już nigdy nie będzie / Never Gonna Snow Again (2020) WEB-DLRip | Line 1.48 GB ↑ 32 ↓ 0
2021-04-09 U Снега больше не будет / Śniegu już nigdy nie będzie / Never Gonna Snow Again (2020) WEB-DL 1080p | Line 3.72 GB ↑ 37 ↓ 8
2021-04-08 U Снега больше не будет / Śniegu już nigdy nie będzie / Never Gonna Snow Again (2020) WEBRip | Line 1.42 GB ↑ 61 ↓ 8

Отзывы
Зарегистрируйтесь чтобы добавить комментарий.
Загрузите программу
  uTorrent.exe
Обратная связь
Copyleft ©