↑↓torrent.by
Поиск
Логин: Регистрация
Пароль: Восстановить пароль

Тело / The Body / El cuerpo (2012) BDRemux 1080р от ELEKTRI4KA | iTunes

Скачать telo-the-body-el-cuerpo-2012-bdremux-1080r-ot-elektri4ka-itunes.torrent
U Магнитная ссылка Размер: 28.59 GB Раздают: 35 Качают: 21 Добавлен: 2021-04-08 05:36:16
Тело / The Body / El cuerpo (2012) BDRemux 1080р от ELEKTRI4KA | iTunes

Название: Тело
Оригинальное название: El cuerpo / The Body
Год выхода: 2012
Жанр: Триллер, детектив, криминал
Режиссер: Ориол Паоло
В ролях: Хосе Коронадо, Уго Сильва, Белен Руэда, Аура Гарридо, Мигель Гелаберт, Хуан Пабло Шук, Ориоль Вила, Карлота Ольсина, Патрисия Баргальо, Миа Эстеве

О фильме: Автомобиль сбивает человека, в панике убегающего от кого-то или от чего-то. Прибывшие на место полицейские выясняют, что сбитый бедолага — ночной сторож из близлежащего морга. Так что так напугало несчастного? И куда делся из отсека №3 недавно привезенный в морг труп?

Выпущено: Испания / Antena 3 Films, Canal+ Espana, Rodar y Rodar Cine y Television
Продолжительность: 01:51:12
Озвучивание: Дублированное | iTunes

Файл
Формат: MKV
Качество: BDRemux 1080р
Видео: MPEG-4 AVC, 32.7 Мb/s, 1920x1080
Аудио #1: Russian: 48 kHz, AC3 Dolby Digital, 3/2 (L, C, R, l, r) + LFE ch, ~384 Kbps | DUB | iTunes
Аудио #2: Spaniish: 48 kHz, DTS-HD Master Audio, 3/2 (L, C, R, l, r) + LFE ch, ~3715 Kbps | Original
Субтитры: Russian (2 х Full [от Perevodman - ненормативная лексика; marimerci]), English (Full), Spanish (Full)
Дополнительно: Сохранены оригинальные чаптеры.

** Спасибо Garik50cent за звук от iTunes!

Релиз: &


[+] MediaInfo:
Complete name: Telo.2012.BDREMUX.1080p.ELEKTRI4KA.UNIONGANG.mkv
Format: Matroska
Format version: Version 4
File size: 28.6 GiB
Duration: 1 h 51 min
Overall bit rate mode: Variable
Overall bit rate: 36.8 Mb/s
Movie name: Telo.2012.BDREMUX.1080p.ELEKTRI4KA.UNIONGANG.
Encoded date: UTC 2021-04-06 19:17:05
Writing application: mkvmerge v8.3.0 ('Over the Horizon') 64bit
Writing library: libebml v1.3.1 + libmatroska v1.4.2

Video
ID: 1
Format: AVC
Format/Info: Advanced Video Codec
Format profile: High@L4.1
Format settings: CABAC / 4 Ref Frames
Format settings, CABAC: Yes
Format settings, Reference frames: 4 frames
Codec ID: V_MPEG4/ISO/AVC
Duration: 1 h 51 min
Bit rate mode: Constant
Bit rate: 32.7 Mb/s
Nominal bit rate: 35.0 Mb/s
Width: 1 920 pixels
Height: 1 080 pixels
Display aspect ratio: 16:9
Frame rate mode: Constant
Frame rate: 24.000 FPS
Standard: NTSC
Color space: YUV
Chroma subsampling: 4:2:0
Bit depth: 8 bits
Scan type: Progressive
Bits/(Pixel*Frame): 0.657
Stream size: 25.4 GiB (89%)
Language: English
Default: Yes
Forced: No
Color range: Limited
Color primaries: BT.709
Transfer characteristics: BT.709
Matrix coefficients: BT.709

Audio #1
ID: 2
Format: AC-3
Format/Info: Audio Coding 3
Commercial name: Dolby Digital
Codec ID: A_AC3
Duration: 1 h 51 min
Bit rate mode: Constant
Bit rate: 384 kb/s
Channel(s): 6 channels
Channel layout: L R C LFE Ls Rs
Sampling rate: 48.0 kHz
Frame rate: 31.250 FPS (1536 SPF)
Compression mode: Lossy
Stream size: 305 MiB (1%)
Title: DUB (iTunes)
Language: Russian
Service kind: Complete Main
Default: Yes
Forced: Yes

Audio #2
ID: 3
Format: DTS XLL
Format/Info: Digital Theater Systems
Commercial name: DTS-HD Master Audio
Codec ID: A_DTS
Duration: 1 h 51 min
Bit rate mode: Variable
Bit rate: 3 715 kb/s
Channel(s): 6 channels
Channel layout: C L R Ls Rs LFE
Sampling rate: 48.0 kHz
Frame rate: 93.750 FPS (512 SPF)
Bit depth: 24 bits
Compression mode: Lossless
Stream size: 2.89 GiB (10%)
Title: Original
Language: Spanish
Default: No
Forced: No

Text #1
ID: 4
Format: UTF-8
Codec ID: S_TEXT/UTF8
Codec ID/Info: UTF-8 Plain Text
Duration: 1 h 44 min
Bit rate: 93 b/s
Count of elements: 1306
Stream size: 72.0 KiB (0%)
Title: Full (Perevodman)
Language: Russian
Default: No
Forced: No

Text #2
ID: 5
Format: UTF-8
Codec ID: S_TEXT/UTF8
Codec ID/Info: UTF-8 Plain Text
Duration: 1 h 44 min
Bit rate: 102 b/s
Count of elements: 1272
Stream size: 78.5 KiB (0%)
Title: Full (marimerci)
Language: Russian
Default: Yes
Forced: No

Text #3
ID: 6
Format: UTF-8
Codec ID: S_TEXT/UTF8
Codec ID/Info: UTF-8 Plain Text
Duration: 1 h 44 min
Bit rate: 55 b/s
Count of elements: 1270
Stream size: 42.5 KiB (0%)
Language: English
Default: No
Forced: No

Text #4
ID: 7
Format: UTF-8
Codec ID: S_TEXT/UTF8
Codec ID/Info: UTF-8 Plain Text
Duration: 1 h 44 min
Bit rate: 66 b/s
Count of elements: 1407
Stream size: 51.1 KiB (0%)
Language: Spanish
Default: No
Forced: No

Menu
00:00:00.000: es:Chapter 01
00:04:36.817: es:Chapter 02
00:09:16.638: es:Chapter 03
00:14:39.586: es:Chapter 04
00:21:55.689: es:Chapter 05
00:26:34.342: es:Chapter 06
00:34:23.893: es:Chapter 07
00:41:06.963: es:Chapter 08
00:48:30.824: es:Chapter 09
00:56:45.652: es:Chapter 10
01:05:11.073: es:Chapter 11
01:11:21.903: es:Chapter 12
01:19:30.724: es:Chapter 13
01:25:00.886: es:Chapter 14
01:31:49.837: es:Chapter 15
01:37:32.889: es:Chapter 16
01:44:44.737: es:Chapter 17



Скриншоты:
[+] Всего файлов в раздаче - 1:
Telo.2012.BDREMUX.1080p.ELEKTRI4KA.UNIONGANG.mkv28.59 GB

Похожие раздачи по запросу - тело:
2021-04-08 U Тело / The Body / El cuerpo (2012) BDRip-AVC | iTunes 2.42 GB ↑ 199 ↓ 55
2021-04-08 U Тело / The Body / El cuerpo (2012) BDRip от ELEKTRI4KA | iTunes 2.18 GB ↑ 58 ↓ 11
2021-04-08 U Тело / The Body / El cuerpo (2012) BDRip-AVC от ExKinoRay | iTunes 746.89 MB ↑ 82 ↓ 14
2021-04-08 U Тело / The Body / El cuerpo (2012) BDRip 720p | iTunes 6.49 GB ↑ 144 ↓ 33
2021-04-08 U Тело / The Body / El cuerpo (2012) HDRip от ELEKTRI4KA | iTunes 1.46 GB ↑ 141 ↓ 24
2021-04-08 U Тело / The Body / El cuerpo (2012) BDRip 1080p | iTunes 13.14 GB ↑ 223 ↓ 76

Отзывы
Зарегистрируйтесь чтобы добавить комментарий.
Загрузите программу
  uTorrent.exe
Обратная связь
Copyleft ©