↑↓torrent.by
Поиск
Логин: Регистрация
Пароль: Восстановить пароль

Охотник на монстров / Monster Hunter (2020) BDRip 720p от селезень | Лицензия

Скачать ohotnik-na-monstrov-monster-hunter-2020-bdrip-720p-ot-selezen-licenziya.torrent
U Магнитная ссылка Размер: 5.40 GB Раздают: 46 Качают: 12 Добавлен: 2021-04-08 05:36:28
Охотник на монстров / Monster Hunter (2020) BDRip 720p от селезень | Лицензия

Название: Охотник на монстров
Оригинальное название: Monster Hunter
Год выхода: 2020
Жанр: Фэнтези, боевик, приключения
Режиссер: Пол У. С. Андерсон
В ролях: Милла Йовович, Тони Джа, Рон Перлман, Ти-Ай, Диего Бонета, Миган Гуд, Джош Хелман, Джин О-Юн, Хирона Ямадзаки, Янник Шуманн

О фильме: Параллельно нашему миру существует иной — мир, где правят крайне опасные и наделенные невероятной силой монстры. Именно сюда через пространственный портал попадают лейтенант Артемис и ее отряд элитных бойцов. И теперь им предстоит проверить себя на прочность перед лицом невиданной ранее угрозы. Пытаясь выжить и найти дорогу домой, Артемис объединяет силы с местным Охотником, который научился выживать в этих враждебных землях. Вместе героям предстоит вступить в схватку с ужасающими монстрами, не знающими страха и жалости.

Страна: США, Китай, Германия, Япония
Студия: Capcom Company, Constantin Film, Impact Pictures, Tencent Pictures, Toho Company
Продолжительность: 01:43:08
Перевод: Дублированный | Лицензия

Качество: BDRip 720p
Видео: MPEG-4 AVC, 1280x536, 6220 Kbit/s, 23.976 fps
Аудио #01: 48 kHz, AC3, 5.1, 640 Kbps | Дублированный | RUS |
Аудио #02: 48 kHz, AC3, 5.1, 640 Kbps | Оригинал | ENG |
Субтитры: Русские (Forced, 3 x full), английские

Релиз: Присоединяйся к:


[+] MI
General
Unique ID                   : 186092809740738047825223075296794321264 (0x8C002BE58E21BBCE0F1BCDAC423B2170)
Complete name               : F:VideoMonster.Hunter.2020.Lic.BDRip.720p.seleZen.mkv
Format                      : Matroska
Format version              : Version 4
File size                   : 5.40 GiB
Duration                    : 1 h 43 min
Overall bit rate            : 7 503 kb/s
Movie name                  : Monster Hunter 2020 from seleZen
Encoded date                : UTC 2021-04-07 15:13:21
Writing application         : mkvmerge v55.0.0 ('Waiting For Space') 64-bit
Writing library             : libebml v1.4.2 + libmatroska v1.6.4

Video
ID                          : 1
Format                      : AVC
Format/Info                 : Advanced Video Codec
Format profile              : High@L4.1
Format settings             : CABAC / 12 Ref Frames
Format settings, CABAC      : Yes
Format settings, Reference  : 12 frames
Codec ID                    : V_MPEG4/ISO/AVC
Duration                    : 1 h 43 min
Bit rate                    : 6 220 kb/s
Width                       : 1 280 pixels
Height                      : 536 pixels
Display aspect ratio        : 2.40:1
Frame rate mode             : Constant
Frame rate                  : 23.976 (24000/1001) FPS
Color space                 : YUV
Chroma subsampling          : 4:2:0
Bit depth                   : 8 bits
Scan type                   : Progressive
Bits/(Pixel*Frame)          : 0.378
Stream size                 : 4.48 GiB (83%)
Title                       : playHD
Writing library             : x264 core 160 r3000+53 e3e4c3e t_mod_New [(8 & 10)-bit@all X86_64]
Encoding settings           : cabac=1 / ref=12 / deblock=1:-3:-3 / analyse=0x3:0x133 / me=umh / subme=10 / psy=1 / fade_compensate=0.00 / psy_rd=1.00:0.00 / mixed_ref=1 / me_range=32 / chroma_me=1 / trellis=2 / 8x8dct=1 / cqm=0 / deadzone=21,11 / fast_pskip=0 / chroma_qp_offset=-2 / threads=24 / lookahead_threads=4 / sliced_threads=0 / nr=0 / decimate=0 / interlaced=0 / bluray_compat=0 / constrained_intra=0 / fgo=0 / bframes=8 / b_pyramid=2 / b_adapt=2 / b_bias=0 / direct=3 / weightb=1 / open_gop=0 / weightp=2 / keyint=250 / keyint_min=23 / scenecut=40 / intra_refresh=0 / rc=crf / mbtree=0 / crf=15.9000 / qcomp=0.60 / qpmin=0:0:0 / qpmax=69:69:69 / qpstep=4 / ip_ratio=1.30 / pb_ratio=1.20 / aq=3:0.85 / aq-sensitivity=10.00 / aq-factor=1.00:1.00:1.00 / aq2=0 / aq3=0
Language                    : English
Default                     : Yes
Forced                      : No

Audio #1
ID                          : 2
Format                      : AC-3
Format/Info                 : Audio Coding 3
Commercial name             : Dolby Digital
Codec ID                    : A_AC3
Duration                    : 1 h 43 min
Bit rate mode               : Constant
Bit rate                    : 640 kb/s
Channel(s)                  : 6 channels
Channel layout              : L R C LFE Ls Rs
Sampling rate               : 48.0 kHz
Frame rate                  : 31.250 FPS (1536 SPF)
Compression mode            : Lossy
Stream size                 : 472 MiB (9%)
Title                       : Dub [License]
Language                    : Russian
Service kind                : Complete Main
Default                     : Yes
Forced                      : Yes

Audio #2
ID                          : 3
Format                      : AC-3
Format/Info                 : Audio Coding 3
Commercial name             : Dolby Digital
Codec ID                    : A_AC3
Duration                    : 1 h 43 min
Bit rate mode               : Constant
Bit rate                    : 640 kb/s
Channel(s)                  : 6 channels
Channel layout              : L R C LFE Ls Rs
Sampling rate               : 48.0 kHz
Frame rate                  : 31.250 FPS (1536 SPF)
Compression mode            : Lossy
Stream size                 : 472 MiB (9%)
Title                       : Original
Language                    : English
Service kind                : Complete Main
Default                     : No
Forced                      : No

Text #1
ID                          : 4
Format                      : UTF-8
Codec ID                    : S_TEXT/UTF8
Codec ID/Info               : UTF-8 Plain Text
Duration                    : 1 h 41 min
Bit rate                    : 0 b/s
Count of elements           : 10
Stream size                 : 536 Bytes (0%)
Title                       : Forced
Language                    : Russian
Default                     : Yes
Forced                      : Yes

Text #2
ID                          : 5
Format                      : UTF-8
Codec ID                    : S_TEXT/UTF8
Codec ID/Info               : UTF-8 Plain Text
Duration                    : 1 h 41 min
Bit rate                    : 27 b/s
Count of elements           : 490
Stream size                 : 20.3 KiB (0%)
Title                       : Full
Language                    : Russian
Default                     : No
Forced                      : No

Text #3
ID                          : 6
Format                      : UTF-8
Codec ID                    : S_TEXT/UTF8
Codec ID/Info               : UTF-8 Plain Text
Duration                    : 1 h 32 min
Bit rate                    : 30 b/s
Count of elements           : 521
Stream size                 : 20.9 KiB (0%)
Title                       : Full [Enigma]
Language                    : Russian
Default                     : No
Forced                      : No

Text #4
ID                          : 7
Format                      : UTF-8
Codec ID                    : S_TEXT/UTF8
Codec ID/Info               : UTF-8 Plain Text
Duration                    : 1 h 33 min
Bit rate                    : 29 b/s
Count of elements           : 502
Stream size                 : 20.3 KiB (0%)
Title                       : Full [FOCS]
Language                    : Russian
Default                     : No
Forced                      : No

Text #5
ID                          : 8
Format                      : UTF-8
Codec ID                    : S_TEXT/UTF8
Codec ID/Info               : UTF-8 Plain Text
Duration                    : 19 min 24 s
Bit rate                    : 0 b/s
Count of elements           : 4
Stream size                 : 112 Bytes (0%)
Title                       : Forced
Language                    : English
Default                     : No
Forced                      : No

Text #6
ID                          : 9
Format                      : UTF-8
Codec ID                    : S_TEXT/UTF8
Codec ID/Info               : UTF-8 Plain Text
Duration                    : 1 h 29 min
Bit rate                    : 19 b/s
Count of elements           : 498
Stream size                 : 12.7 KiB (0%)
Title                       : Full
Language                    : English
Default                     : No
Forced                      : No

Text #7
ID                          : 10
Format                      : UTF-8
Codec ID                    : S_TEXT/UTF8
Codec ID/Info               : UTF-8 Plain Text
Duration                    : 1 h 35 min
Bit rate                    : 26 b/s
Count of elements           : 814
Stream size                 : 18.6 KiB (0%)
Title                       : SDH
Language                    : English
Default                     : No
Forced                      : No

Menu
00:00:00.000                : en:Chapter 01
00:04:59.424                : en:Chapter 02
00:10:28.211                : en:Chapter 03
00:15:26.342                : en:Chapter 04
00:21:12.938                : en:Chapter 05
00:24:53.492                : en:Chapter 06
00:31:53.328                : en:Chapter 07
00:35:58.698                : en:Chapter 08
00:41:10.301                : en:Chapter 09
00:48:05.007                : en:Chapter 10
00:54:10.080                : en:Chapter 11
01:01:36.109                : en:Chapter 12
01:06:18.516                : en:Chapter 13
01:13:21.689                : en:Chapter 14
01:23:01.727                : en:Chapter 15
01:31:21.601                : en:Chapter 16
01:35:39.734                : en:Chapter 17



Скриншоты:
[+] Всего файлов в раздаче - 1:
Monster.Hunter.2020.Lic.BDRip.720p.seleZen.mkv5.40 GB

Показать еще раздачи по запросу охотник:
2021-04-08 U Охотник на монстров / Monster Hunter (2020) BDRip-AVC от OlLanDGroup | Лицензия 745.52 MB ↑ 28 ↓ 6
2021-04-08 U Охотник на монстров / Monster Hunter (2020) BDRip-AVC от MegaPeer | D, P | Лицензия 2.69 GB ↑ 21 ↓ 9
2021-04-08 U Охотник на монстров / Monster Hunter (2020) BDRip 1080p от селезень | Лицензия 12.35 GB ↑ 41 ↓ 16
2021-04-01 U Охотник на монстров / Monster Hunter (2020) BDRip 720p от ExKinoRay | iTunes | D, P, A 6.22 GB ↑ 47 ↓ 23
2021-04-01 U Охотник на монстров / Monster Hunter (2020) BDRip 1080p от селезень | iTunes 12.16 GB ↑ 134 ↓ 84
2021-04-01 U Охотник на монстров / Monster Hunter (2020) BDRip от MegaPeer | iTunes 1.42 GB ↑ 57 ↓ 16
2021-04-01 U Охотник на монстров / Monster Hunter (2020) BDRemux 1080p от селезень | iTunes 20.69 GB ↑ 54 ↓ 21

Отзывы
Зарегистрируйтесь чтобы добавить комментарий.
Загрузите программу
  uTorrent.exe
Обратная связь
Copyleft ©