↑↓torrent.by
Поиск
Логин: Регистрация
Пароль: Восстановить пароль

Охотник на монстров / Monster Hunter (2020) BDRip-AVC от MegaPeer | D, P | Лицензия

Скачать ohotnik-na-monstrov-monster-hunter-2020-bdrip-avc-ot-megapeer-d-p-licenziya.torrent
U Магнитная ссылка Размер: 2.69 GB Раздают: 21 Качают: 9 Добавлен: 2021-04-08 05:36:46
Охотник на монстров / Monster Hunter (2020) BDRip-AVC от MegaPeer | D, P | Лицензия

Название: Охотник на монстров
Оригинальное название: Monster Hunter
Год выхода: 2020
Жанр: Фэнтези, боевик, приключения

Режиссер: Пол У. С. Андерсон
В ролях: Милла Йовович, Тони Джа, Рон Перлман, Ти-Ай, Диего Бонета, Миган Гуд, Джош Хелман, Джин О-Юн, Хирона Ямадзаки, Янник Шуманн

О фильме:
Параллельно нашему миру существует иной — мир, где правят крайне опасные и наделенные невероятной силой монстры. Именно сюда через пространственный портал попадают лейтенант Артемис и ее отряд элитных бойцов. И теперь им предстоит проверить себя на прочность перед лицом невиданной ранее угрозы. Пытаясь выжить и найти дорогу домой, Артемис объединяет силы с местным Охотником, который научился выживать в этих враждебных землях. Вместе героям предстоит вступить в схватку с ужасающими монстрами, не знающими страха и жалости.

Страна: США, Китай, Германия, Япония
Студия: Capcom Company, Constantin Film, Impact Pictures, Tencent Pictures, Toho Company
Продолжительность: 01:43:08
Перевод:
• Профессиональный (полное дублирование) | Blu-ray EUR | Лицензия
• Профессиональный (многоголосый, закадровый) | HDRezka Studio

Файл
Качество: BDRip-AVC
Исходник: Monster.Hunter.2020.BDRemux.THD
Формат: MKV
Кодек: MPEG-4 AVC
Видео: 1024x428 (2.40:1), 23.976 fps, MPEG-4 AVC ~ 2840 Kbps avg, 0.270 bit/pixel
Аудио: AC3, 48 kHz, 6 ch, ~448.00 kbps avg | русский | Blu-ray EUR
Аудио: AC3, 48 kHz, 6 ch, ~448.00 kbps avg | русский | HDRezka Studio
Субтитры: Русские (3 вида форсированные, 3 вида полные), украинские (форсированные)

Релиз:


[+] Инфо-файл
x264 [info]: frame I:1414  Avg QP:13.44  size: 74424
x264 [info]: frame P:41253 Avg QP:15.87  size: 25893
x264 [info]: frame B:105701 Avg QP:18.05  size:  9680
x264 [info]: consecutive B-frames:  5.7%  6.4% 12.1% 37.1% 13.9% 16.3%  3.4%  3.0%  0.7%  0.8%  0.2%  0.3%  0.1%
***************************************************

Общее
Уникальный идентификатор                 : 134701250949309461642118132634526657549 (0x6556846C21E4E6ACBD206CFCE13FAC0D)
Полное имя                               : Monster.Hunter.2020.Lic.BDRip.2.69Gb.x264.MegaPeer.mkv
Формат                                   : Matroska
Версия формата                           : Version 4
Размер файла                             : 2,69 Гбайт
Продолжительность                        : 1 ч. 43 м.
Общий поток                              : 3 738 Кбит/сек
Название фильма                          : Охотник на монстров / Monster Hunter (2020) от MegaPeer
Дата кодирования                         : UTC 2021-04-07 16:18:33
Программа кодирования                    : mkvmerge v47.0.0 ('Black Flag') 64-bit
Библиотека кодирования                   : libebml v1.3.10 + libmatroska v1.5.2
Обложка                                  : Yes
Attachments                              : cover.jpg

Видео
Идентификатор                            : 1
Формат                                   : AVC
Формат/Информация                        : Advanced Video Codec
Профиль формата                          : High@L4.1
Настройки формата                        : CABAC / 9 Ref Frames
Параметр CABAC формата                   : Да
Параметр RefFrames формата               : 9 кадров
Идентификатор кодека                     : V_MPEG4/ISO/AVC
Продолжительность                        : 1 ч. 43 м.
Битрейт                                  : 2 840 Кбит/сек
Ширина                                   : 1 024 пикселя
Высота                                   : 428 пикселей
Соотношение сторон                       : 2,40:1
Режим частоты кадров                     : Постоянный
Частота кадров                           : 23,976 кадра/сек
Цветовое пространство                    : YUV
Субдискретизация насыщенности            : 4:2:0
Битовая глубина                          : 8 бит
Тип развёртки                            : Прогрессивная
Бит/(Пиксели*Кадры)                      : 0.270
Размер потока                            : 2,05 Гбайт (76%)
Заголовок                                : stillet@MegaPeer
Библиотека кодирования                   : x264 core 161 r3018 db0d417
Настройки программы                      : cabac=1 / ref=9 / deblock=1:-2:-2 / analyse=0x3:0x113 / me=umh / subme=11 / psy=1 / psy_rd=1.00:0.00 / mixed_ref=1 / me_range=48 / chroma_me=1 / trellis=2 / 8x8dct=1 / cqm=0 / deadzone=21,11 / fast_pskip=0 / chroma_qp_offset=-2 / threads=13 / lookahead_threads=3 / sliced_threads=0 / nr=0 / decimate=0 / interlaced=0 / bluray_compat=0 / constrained_intra=0 / bframes=12 / b_pyramid=2 / b_adapt=2 / b_bias=0 / direct=3 / weightb=1 / open_gop=0 / weightp=2 / keyint=240 / keyint_min=24 / scenecut=40 / intra_refresh=0 / rc_lookahead=40 / rc=2pass / mbtree=0 / bitrate=2840 / ratetol=1.0 / qcomp=0.60 / qpmin=0 / qpmax=69 / qpstep=4 / cplxblur=20.0 / qblur=0.5 / vbv_maxrate=50000 / vbv_bufsize=62500 / nal_hrd=none / filler=0 / ip_ratio=1.40 / pb_ratio=1.30 / aq=1:1.10
Язык                                     : English
Default                                  : Да
Forced                                   : Нет

Аудио #1
Идентификатор                            : 2
Формат                                   : AC-3
Формат/Информация                        : Audio Coding 3
Коммерческое название                    : Dolby Digital
Идентификатор кодека                     : A_AC3
Продолжительность                        : 1 ч. 43 м.
Вид битрейта                             : Постоянный
Битрейт                                  : 448 Кбит/сек
Каналы                                   : 6 каналов
Channel layout                           : L R C LFE Ls Rs
Частота                                  : 48,0 КГц
Частота кадров                           : 31,250 кадров/сек (1536 SPF)
Метод сжатия                             : С потерями
Размер потока                            : 330 Мбайт (12%)
Заголовок                                : DUB | Blu-ray EUR
Язык                                     : Russian
Service kind                             : Complete Main
Default                                  : Да
Forced                                   : Да

Аудио #2
Идентификатор                            : 3
Формат                                   : AC-3
Формат/Информация                        : Audio Coding 3
Коммерческое название                    : Dolby Digital
Идентификатор кодека                     : A_AC3
Продолжительность                        : 1 ч. 43 м.
Вид битрейта                             : Постоянный
Битрейт                                  : 448 Кбит/сек
Каналы                                   : 6 каналов
Channel layout                           : L R C LFE Ls Rs
Частота                                  : 48,0 КГц
Частота кадров                           : 31,250 кадров/сек (1536 SPF)
Метод сжатия                             : С потерями
Размер потока                            : 330 Мбайт (12%)
Заголовок                                : MVO | HDRezka Studio
Язык                                     : Russian
Service kind                             : Complete Main
Default                                  : Нет
Forced                                   : Нет

Текст #1
Идентификатор                            : 4
Формат                                   : UTF-8
Идентификатор кодека                     : S_TEXT/UTF8
Идентификатор кодека/Информация          : UTF-8 Plain Text
Продолжительность                        : 1 ч. 41 м.
Битрейт                                  : 0 бит/сек
Count of elements                        : 10
Размер потока                            : 536 байт (0%)
Заголовок                                : Forced v.1
Язык                                     : Russian
Default                                  : Да
Forced                                   : Да

Текст #2
Идентификатор                            : 5
Формат                                   : UTF-8
Идентификатор кодека                     : S_TEXT/UTF8
Идентификатор кодека/Информация          : UTF-8 Plain Text
Продолжительность                        : 1 ч. 32 м.
Битрейт                                  : 1 бит/сек
Count of elements                        : 26
Размер потока                            : 1,27 Кбайт (0%)
Заголовок                                : Forced v.2
Язык                                     : Russian
Default                                  : Нет
Forced                                   : Нет

Текст #3
Идентификатор                            : 6
Формат                                   : UTF-8
Идентификатор кодека                     : S_TEXT/UTF8
Идентификатор кодека/Информация          : UTF-8 Plain Text
Продолжительность                        : 1 ч. 30 м.
Битрейт                                  : 4 бит/сек
Count of elements                        : 59
Размер потока                            : 3,12 Кбайт (0%)
Заголовок                                : Forced v.3
Язык                                     : Russian
Default                                  : Нет
Forced                                   : Нет

Текст #4
Идентификатор                            : 7
Формат                                   : UTF-8
Идентификатор кодека                     : S_TEXT/UTF8
Идентификатор кодека/Информация          : UTF-8 Plain Text
Продолжительность                        : 1 ч. 41 м.
Битрейт                                  : 27 бит/сек
Count of elements                        : 490
Размер потока                            : 20,3 Кбайт (0%)
Заголовок                                : Full v.1
Язык                                     : Russian
Default                                  : Нет
Forced                                   : Нет

Текст #5
Идентификатор                            : 8
Формат                                   : UTF-8
Идентификатор кодека                     : S_TEXT/UTF8
Идентификатор кодека/Информация          : UTF-8 Plain Text
Продолжительность                        : 1 ч. 32 м.
Битрейт                                  : 30 бит/сек
Count of elements                        : 521
Размер потока                            : 20,9 Кбайт (0%)
Заголовок                                : Full v.2
Язык                                     : Russian
Default                                  : Нет
Forced                                   : Нет

Текст #6
Идентификатор                            : 9
Формат                                   : UTF-8
Идентификатор кодека                     : S_TEXT/UTF8
Идентификатор кодека/Информация          : UTF-8 Plain Text
Продолжительность                        : 1 ч. 33 м.
Битрейт                                  : 29 бит/сек
Count of elements                        : 502
Размер потока                            : 20,3 Кбайт (0%)
Заголовок                                : Full v.3
Язык                                     : Russian
Default                                  : Нет
Forced                                   : Нет

Текст #7
Идентификатор                            : 10
Формат                                   : UTF-8
Идентификатор кодека                     : S_TEXT/UTF8
Идентификатор кодека/Информация          : UTF-8 Plain Text
Продолжительность                        : 1 ч. 31 м.
Битрейт                                  : 1 бит/сек
Count of elements                        : 25
Размер потока                            : 1,19 Кбайт (0%)
Заголовок                                : Forced
Язык                                     : Ukrainian
Default                                  : Нет
Forced                                   : Нет

Меню
00:00:00.000                             : :01
00:04:59.423                             : :02
00:10:28.210                             : :03
00:15:26.341                             : :04
00:21:12.938                             : :05
00:24:53.490                             : :06
00:31:53.327                             : :07
00:35:58.697                             : :08
00:41:10.300                             : :09
00:48:05.007                             : :10
00:54:10.079                             : :11
01:01:36.108                             : :12
01:06:18.516                             : :13
01:13:21.688                             : :14
01:23:01.725                             : :15
01:31:21.600                             : :16



Скриншоты:
[+] Всего файлов в раздаче - 1:
Monster.Hunter.2020.Lic.BDRip.2.69Gb.x264.MegaPeer.mkv2.69 GB

Показать еще раздачи по запросу охотник:
2021-04-08 U Охотник на монстров / Monster Hunter (2020) BDRip-AVC от OlLanDGroup | Лицензия 745.52 MB ↑ 28 ↓ 6
2021-04-08 U Охотник на монстров / Monster Hunter (2020) BDRip 720p от селезень | Лицензия 5.40 GB ↑ 46 ↓ 12
2021-04-08 U Охотник на монстров / Monster Hunter (2020) BDRip 1080p от селезень | Лицензия 12.35 GB ↑ 41 ↓ 16
2021-04-01 U Охотник на монстров / Monster Hunter (2020) BDRip 720p от ExKinoRay | iTunes | D, P, A 6.22 GB ↑ 47 ↓ 23
2021-04-01 U Охотник на монстров / Monster Hunter (2020) BDRip 1080p от селезень | iTunes 12.16 GB ↑ 134 ↓ 84
2021-04-01 U Охотник на монстров / Monster Hunter (2020) BDRip от MegaPeer | iTunes 1.42 GB ↑ 56 ↓ 16
2021-04-01 U Охотник на монстров / Monster Hunter (2020) BDRemux 1080p от селезень | iTunes 20.69 GB ↑ 54 ↓ 21

Отзывы
Зарегистрируйтесь чтобы добавить комментарий.
Загрузите программу
  uTorrent.exe
Обратная связь
Copyleft ©