↑↓torrent.by
Поиск
Логин: Регистрация
Пароль: Восстановить пароль

Ограбление склепа / Dogul / Collectors (2020) WEBRip 1080p | L

Скачать ograblenie-sklepa-dogul-collectors-2020-webrip-1080p-l.torrent
U Магнитная ссылка Размер: 4.40 GB Раздают: 26 Качают: 8 Добавлен: 2021-04-08 05:36:53
Ограбление склепа / Dogul / Collectors (2020) WEBRip 1080p |  L

Название: Ограбление склепа
Оригинальное название: Dogul
Год выхода: 2020
Жанр: криминал, комедия

Режиссер: Пак Чон-бэ

В ролях: Ли Джэ-хун, Чо У-джин, Лим Вон-хи, Щин Хе-сон, Сон Ён-чхан, Чу Джин-мо, Хо Сон-тхэ, Юн Бён-хи, Ли Сон-ук, Пак Сэ-ван

О фильме:
Эксперт по древнему искусству предлагает группе чёрных копателей выгодное дельце.

Страна: Корея Южная
Продолжительность: 01:54:38
Перевод:  Любительский (многоголосый) | Amazing Dubbing

Файл
Кодек: x.264
Качество: WEBRip 1080p
Видео: AVC, 1920x1080 (16:9), 23.976 fps, 5 120 kb/s
Аудио 1: AC3, 48.0 kHz, 2 ch, 192 kb/s (Russian)
Аудио 2: AC3, 48.0 kHz, 2 ch, 192 kb/s (Korean)
Субтитры: Английские

Рекламы нет | Семпл


[+] MI
General
Unique ID                                : 226667489429903458292861466671853441863 (0xAA86920E556477E7BFD6A830D8F99347)
Complete name                            : Collectors.2020.WEBRip.1080p.mkv
Format                                   : Matroska
Format version                           : Version 4
File size                                : 4.40 GiB
Duration                                 : 1 h 54 min
Overall bit rate                         : 5 494 kb/s
Encoded date                             : UTC 2021-04-07 17:48:50
Writing application                      : mkvmerge v8.3.0 ('Over the Horizon') 64bit
Writing library                          : libebml v1.3.1 + libmatroska v1.4.2

Video
ID                                       : 1
Format                                   : AVC
Format/Info                              : Advanced Video Codec
Format profile                           : High@L4
Format settings                          : CABAC / 4 Ref Frames
Format settings, CABAC                   : Yes
Format settings, ReFrames                : 4 frames
Format settings, GOP                     : M=4, N=23
Codec ID                                 : V_MPEG4/ISO/AVC
Duration                                 : 1 h 54 min
Bit rate                                 : 5 120 kb/s
Width                                    : 1 920 pixels
Height                                   : 1 080 pixels
Display aspect ratio                     : 16:9
Frame rate mode                          : Constant
Frame rate                               : 23.976 (24000/1001) FPS
Color space                              : YUV
Chroma subsampling                       : 4:2:0
Bit depth                                : 8 bits
Scan type                                : Progressive
Bits/(Pixel*Frame)                       : 0.103
Stream size                              : 4.09 GiB (93%)
Writing library                          : x264 core 148 r2768 d32d7bf
Encoding settings                        : cabac=1 / ref=3 / deblock=1:0:0 / analyse=0x3:0x113 / me=hex / subme=8 / psy=1 / psy_rd=1.00:0.00 / mixed_ref=1 / me_range=16 / chroma_me=1 / trellis=2 / 8x8dct=1 / cqm=0 / deadzone=21,11 / fast_pskip=1 / chroma_qp_offset=-2 / threads=24 / lookahead_threads=4 / sliced_threads=0 / nr=0 / decimate=1 / interlaced=0 / bluray_compat=0 / stitchable=1 / constrained_intra=0 / bframes=3 / b_pyramid=2 / b_adapt=1 / b_bias=0 / direct=3 / weightb=1 / open_gop=0 / weightp=2 / keyint=23 / keyint_min=12 / scenecut=40 / intra_refresh=0 / rc_lookahead=23 / rc=2pass / mbtree=1 / bitrate=5120 / ratetol=1.0 / qcomp=0.60 / qpmin=0 / qpmax=69 / qpstep=4 / cplxblur=20.0 / qblur=0.5 / vbv_maxrate=8192 / vbv_bufsize=8192 / nal_hrd=none / filler=0 / ip_ratio=1.40 / aq=1:1.00
Default                                  : Yes
Forced                                   : No

Audio #1
ID                                       : 2
Format                                   : AC-3
Format/Info                              : Audio Coding 3
Commercial name                          : Dolby Digital
Codec ID                                 : A_AC3
Duration                                 : 1 h 54 min
Bit rate mode                            : Constant
Bit rate                                 : 192 kb/s
Channel(s)                               : 2 channels
Channel layout                           : L R
Sampling rate                            : 48.0 kHz
Frame rate                               : 31.250 FPS (1536 SPF)
Bit depth                                : 16 bits
Compression mode                         : Lossy
Stream size                              : 157 MiB (3%)
Title                                    : MVO (Amazing Dubbing)
Language                                 : Russian
Service kind                             : Complete Main
Default                                  : Yes
Forced                                   : No

Audio #2
ID                                       : 3
Format                                   : AC-3
Format/Info                              : Audio Coding 3
Commercial name                          : Dolby Digital
Codec ID                                 : A_AC3
Duration                                 : 1 h 54 min
Bit rate mode                            : Constant
Bit rate                                 : 192 kb/s
Channel(s)                               : 2 channels
Channel layout                           : L R
Sampling rate                            : 48.0 kHz
Frame rate                               : 31.250 FPS (1536 SPF)
Bit depth                                : 16 bits
Compression mode                         : Lossy
Stream size                              : 157 MiB (3%)
Language                                 : Korean
Service kind                             : Complete Main
Default                                  : No
Forced                                   : No

Text
ID                                       : 4
Format                                   : UTF-8
Codec ID                                 : S_TEXT/UTF8
Codec ID/Info                            : UTF-8 Plain Text
Duration                                 : 1 h 49 min
Bit rate                                 : 62 b/s
Count of elements                        : 1684
Stream size                              : 49.8 KiB (0%)
Language                                 : English
Default                                  : No
Forced                                   : No



Скриншоты:
[+] Всего файлов в раздаче - 1:
Collectors.2020.WEBRip.1080p.mkv4.40 GB

Похожие раздачи по запросу - ограбление:
2021-04-08 U Ограбление склепа / Dogul / Collectors (2020) WEBRip | L 1.46 GB ↑ 23 ↓ 12
2021-03-18 U Гениальное ограбление / Way Down (2021) WEB-DLRip от ExKinoRay | L 746.55 MB ↑ 76 ↓ 31
2021-03-17 U Гениальное ограбление / Way Down (2021) WEB-DLRip-AVC | L 1,010.70 MB ↑ 263 ↓ 120
2021-03-17 U Гениальное ограбление / Way Down (2021) WEB-DL 1080p | L 4.28 GB ↑ 605 ↓ 314
2020-12-09 U Ограбление с ограничениями / Die Goldfische / The Goldfish (2019) BDRip 1080p от ELEKTRI4KA | iTunes 11.05 GB ↑ 35 ↓ 20

Отзывы
Зарегистрируйтесь чтобы добавить комментарий.
Загрузите программу
  uTorrent.exe
Обратная связь
Copyleft ©