↑↓torrent.by
Поиск
Логин: Регистрация
Пароль: Восстановить пароль

Охотник на монстров / Monster Hunter (2020) BDRip-AVC от OlLanDGroup | Лицензия

Скачать ohotnik-na-monstrov-monster-hunter-2020-bdrip-avc-ot-ollandgroup-licenziya.torrent
U Магнитная ссылка Размер: 745.52 MB Раздают: 28 Качают: 6 Добавлен: 2021-04-08 05:37:25
Охотник на монстров / Monster Hunter (2020) BDRip-AVC от OlLanDGroup | Лицензия

Название: Охотник на монстров
Оригинальное название: Monster Hunter
Год выхода: 2020
Жанр: Фэнтези, боевик, приключения

Режиссер: Пол У. С. Андерсон
В ролях: Милла Йовович, Тони Джа, Рон Перлман, Ти-Ай, Диего Бонета, Миган Гуд, Джош Хелман, Джин О-Юн, Хирона Ямадзаки, Янник Шуманн

О фильме:  Параллельно нашему миру существует иной — мир, где правят крайне опасные и наделенные невероятной силой монстры. Именно сюда через пространственный портал попадают лейтенант Артемис и ее отряд элитных бойцов. И теперь им предстоит проверить себя на прочность перед лицом невиданной ранее угрозы. Пытаясь выжить и найти дорогу домой, Артемис объединяет силы с местным Охотником, который научился выживать в этих враждебных землях. Вместе героям предстоит вступить в схватку с ужасающими монстрами, не знающими страха и жалости.

Страна: США, Китай, Германия, Япония
Студия: Capcom Company, Constantin Film, Impact Pictures, Tencent Pictures, Toho Company
Продолжительность: 01:43:08
Перевод: Дублированный | Blu-ray EUR | Лицензия

Файл
Качество: BDRip-AVC
Исходник: Monster.Hunter.2020.BDREMUX.1080p.seleZen
Формат: MKV
Кодек: x264
Видео: 720x300 (2.40:1), 23.976 fps, x264 ~945 kbps avg, 0.182 bit/pixel
Аудио: 48 kHz, HE-AAC, 2 ch, ~64 kbps avg
Субтитры: Русские (Forced, 3 x full), английские

Релиз:


[+] MediaInfo:
Format                         : Matroska
Format version                 : Version 4
File size                      : 746 MiB
Duration                       : 1 h 43 min
Overall bit rate               : 1 011 kb/s
Movie name                     : Охотник на монстров / Monster Hunter (2020) BDRip(AVC) | Rip by: Skandar#OlLanDGroup#
Encoded date                   : UTC 2021-04-07 16:41:04
Writing application            : mkvmerge v31.0.0 ('Dolores In A Shoestand') 64-bit
Writing library                : libebml v1.3.6 + libmatroska v1.4.9

Video
ID                             : 1
Format                         : AVC
Format/Info                    : Advanced Video Codec
Format profile                 : High@L4.1
Format settings                : CABAC / 10 Ref Frames
Format settings, CABAC         : Yes
Format settings, ReFrames      : 10 frames
Codec ID                       : V_MPEG4/ISO/AVC
Duration                       : 1 h 43 min
Bit rate                       : 945 kb/s
Width                          : 720 pixels
Height                         : 300 pixels
Display aspect ratio           : 2.40:1
Frame rate mode                : Constant
Frame rate                     : 23.976 (24000/1001) FPS
Color space                    : YUV
Chroma subsampling             : 4:2:0
Bit depth                      : 8 bits
Scan type                      : Progressive
Bits/(Pixel*Frame)             : 0.182
Stream size                    : 697 MiB (93%)
Title                          : Охотник на монстров / Monster Hunter (2020) BDRip(AVC) | Rip by: Skandar#OlLanDGroup#
Writing library                : x264 core 146 r2538 121396c
Encoding settings              : cabac=1 / ref=10 / deblock=1:-3:-3 / analyse=0x3:0x133 / me=umh / subme=11 / psy=1 / psy_rd=0.95:0.05 / mixed_ref=1 / me_range=32 / chroma_me=1 / trellis=2 / 8x8dct=1 / cqm=0 / deadzone=21,11 / fast_pskip=0 / chroma_qp_offset=-3 / threads=6 / lookahead_threads=1 / sliced_threads=0 / nr=0 / decimate=0 / interlaced=0 / bluray_compat=0 / constrained_intra=0 / bframes=10 / b_pyramid=2 / b_adapt=2 / b_bias=0 / direct=3 / weightb=1 / open_gop=0 / weightp=2 / keyint=240 / keyint_min=23 / scenecut=40 / intra_refresh=0 / rc_lookahead=40 / rc=2pass / mbtree=1 / bitrate=945 / ratetol=1.0 / qcomp=0.60 / qpmin=0 / qpmax=69 / qpstep=4 / cplxblur=20.0 / qblur=0.5 / vbv_maxrate=50000 / vbv_bufsize=62500 / nal_hrd=none / filler=0 / ip_ratio=1.40 / aq=1:1.00
Language                       : English
Default                        : Yes
Forced                         : No

Audio
ID                             : 2
Format                         : AAC LC SBR
Format/Info                    : Advanced Audio Codec Low Complexity with Spectral Band Replication
Commercial name                : HE-AAC
Format settings                : Explicit
Codec ID                       : A_AAC-2
Duration                       : 1 h 43 min
Bit rate                       : 64.0 kb/s
Channel(s)                     : 2 channels
Channel layout                 : L R
Sampling rate                  : 48.0 kHz
Frame rate                     : 23.438 FPS (2048 SPF)
Compression mode               : Lossy
Delay relative to video        : 31 ms
Stream size                    : 47.2 MiB (6%)
Title                          : Dub | Blu-ray EUR | Лицензия
Language                       : Russian
Default                        : Yes
Forced                         : No

Text #1
ID                             : 3
Format                         : UTF-8
Codec ID                       : S_TEXT/UTF8
Codec ID/Info                  : UTF-8 Plain Text
Duration                       : 1 h 41 min
Bit rate                       : 0 b/s
Count of elements              : 10
Stream size                    : 536 Bytes (0%)
Title                          : Forced
Language                       : Russian
Default                        : Yes
Forced                         : Yes

Text #2
ID                             : 4
Format                         : UTF-8
Codec ID                       : S_TEXT/UTF8
Codec ID/Info                  : UTF-8 Plain Text
Duration                       : 1 h 41 min
Bit rate                       : 27 b/s
Count of elements              : 490
Stream size                    : 20.3 KiB (0%)
Title                          : Full
Language                       : Russian
Default                        : No
Forced                         : No

Text #3
ID                             : 5
Format                         : UTF-8
Codec ID                       : S_TEXT/UTF8
Codec ID/Info                  : UTF-8 Plain Text
Duration                       : 1 h 32 min
Bit rate                       : 30 b/s
Count of elements              : 521
Stream size                    : 20.9 KiB (0%)
Title                          : Full [Enigma]
Language                       : Russian
Default                        : No
Forced                         : No

Text #4
ID                             : 6
Format                         : UTF-8
Codec ID                       : S_TEXT/UTF8
Codec ID/Info                  : UTF-8 Plain Text
Duration                       : 1 h 33 min
Bit rate                       : 29 b/s
Count of elements              : 502
Stream size                    : 20.3 KiB (0%)
Title                          : Full [FOCS]
Language                       : Russian
Default                        : No
Forced                         : No

Text #5
ID                             : 7
Format                         : UTF-8
Codec ID                       : S_TEXT/UTF8
Codec ID/Info                  : UTF-8 Plain Text
Duration                       : 19 min 24 s
Bit rate                       : 0 b/s
Count of elements              : 4
Stream size                    : 112 Bytes (0%)
Title                          : Forced
Language                       : English
Default                        : No
Forced                         : No

Text #6
ID                             : 8
Format                         : UTF-8
Codec ID                       : S_TEXT/UTF8
Codec ID/Info                  : UTF-8 Plain Text
Duration                       : 1 h 29 min
Bit rate                       : 19 b/s
Count of elements              : 498
Stream size                    : 12.7 KiB (0%)
Title                          : Full
Language                       : English
Default                        : No
Forced                         : No

Text #7
ID                             : 9
Format                         : UTF-8
Codec ID                       : S_TEXT/UTF8
Codec ID/Info                  : UTF-8 Plain Text
Duration                       : 1 h 35 min
Bit rate                       : 26 b/s
Count of elements              : 814
Stream size                    : 18.6 KiB (0%)
Title                          : SDH
Language                       : English
Default                        : No
Forced                         : No

Menu
00:00:00.000                   : en:Chapter 01
00:04:59.424                   : en:Chapter 02
00:10:28.211                   : en:Chapter 03
00:15:26.342                   : en:Chapter 04
00:21:12.938                   : en:Chapter 05
00:24:53.492                   : en:Chapter 06
00:31:53.328                   : en:Chapter 07
00:35:58.698                   : en:Chapter 08
00:41:10.301                   : en:Chapter 09
00:48:05.007                   : en:Chapter 10
00:54:10.080                   : en:Chapter 11
01:01:36.109                   : en:Chapter 12
01:06:18.516                   : en:Chapter 13
01:13:21.689                   : en:Chapter 14
01:23:01.727                   : en:Chapter 15
01:31:21.601                   : en:Chapter 16
01:35:39.734                   : en:Chapter 17



Скриншоты:
[+] Всего файлов в раздаче - 1:
Monster.Hunter.2020.BDRip(AVC).745Mb.Lic.OlLanDGroup.mkv745.52 MB

Показать еще раздачи по запросу охотник:
2021-04-08 U Охотник на монстров / Monster Hunter (2020) BDRip-AVC от MegaPeer | D, P | Лицензия 2.69 GB ↑ 21 ↓ 9
2021-04-08 U Охотник на монстров / Monster Hunter (2020) BDRip 720p от селезень | Лицензия 5.40 GB ↑ 46 ↓ 12
2021-04-08 U Охотник на монстров / Monster Hunter (2020) BDRip 1080p от селезень | Лицензия 12.35 GB ↑ 41 ↓ 16
2021-04-01 U Охотник на монстров / Monster Hunter (2020) BDRip 720p от ExKinoRay | iTunes | D, P, A 6.22 GB ↑ 47 ↓ 23
2021-04-01 U Охотник на монстров / Monster Hunter (2020) BDRip 1080p от селезень | iTunes 12.16 GB ↑ 134 ↓ 84
2021-04-01 U Охотник на монстров / Monster Hunter (2020) BDRip от MegaPeer | iTunes 1.42 GB ↑ 57 ↓ 16
2021-04-01 U Охотник на монстров / Monster Hunter (2020) BDRemux 1080p от селезень | iTunes 20.69 GB ↑ 54 ↓ 21

Отзывы
Зарегистрируйтесь чтобы добавить комментарий.
Загрузите программу
  uTorrent.exe
Обратная связь
Copyleft ©