↑↓torrent.by
Поиск
Логин: Регистрация
Пароль: Восстановить пароль

Не время умирать / No Time to Die (2021) WEB-DLRip | L1

Скачать ne-vremya-umirat-no-time-to-die-2021-web-dlrip-l1.torrent
U Магнитная ссылка Размер: 2.16 GB Раздают: 373 Качают: 314 Добавлен: 2021-11-10 19:57:06
Не время умирать / No Time to Die (2021) WEB-DLRip | L1

Год выхода: 2021
Жанр:  Боевик, триллер, приключения
Режиссер: Кэри Дзёдзи Фукунага
В ролях: Дэниэл Крэйг, Рами Малек, Леа Сейду, Лашана Линч, Бен Уишоу, Наоми Харрис, Билли Магнуссен, Ана де Армас, Кристоф Вальц, Рэйф Файнс

О фильме:
Джеймс Бонд оставил оперативную службу и наслаждается спокойной жизнью на Ямайке. Все меняется, когда на острове появляется его старый друг Феликс Лейтер из ЦРУ с просьбой о помощи. Миссия по спасению похищенного ученого оказывается опаснее, чем предполагалось изначально. Бонд попадает в ловушку к таинственному злодею, вооруженному опасным технологическим оружием.

Страна: Великобритания, США
Студия: Metro-Goldwyn-Mayer (MGM), Universal Pictures, Eon Productions
Продолжительность: 02:43:23
Перевод: Любительский одноголосый | feofanio
Субтитры: Русские (feofanio), английские (отдельно)

Файл
Качество: WEB-DLRip
Формат видео: AVI
Видео: 720x304 (2.35:1), 23.976 fps, XviD build 67 ~1484 kbps avg
Аудио 1: mp3, 48 kHz, 2 channels, 192 kbps
Аудио 2: mp3, 48 kHz, 2 channels, 192 kbps
Формат субтитров: softsub (SRT)


[+] M/I
Format                      : AVI
Format/Info                 : Audio Video Interleave
File size                   : 2.16 GiB
Duration                    : 2 h 43 min
Overall bit rate            : 1 889 kb/s

Video
ID                          : 0
Format                      : MPEG-4 Visual
Format profile              : Advanced Simple@L4
Format settings             : BVOP2
Format settings, BVOP       : 2
Format settings, QPel       : No
Format settings, GMC        : No warppoints
Format settings, Matrix     : Default (H.263)
Codec ID                    : XVID
Codec ID/Hint               : XviD
Duration                    : 2 h 43 min
Bit rate                    : 1 484 kb/s
Width                       : 720 pixels
Height                      : 304 pixels
Display aspect ratio        : 2.35:1
Frame rate                  : 23.976 (24000/1001) FPS
Color space                 : YUV
Chroma subsampling          : 4:2:0
Bit depth                   : 8 bits
Scan type                   : Progressive
Compression mode            : Lossy
Bits/(Pixel*Frame)          : 0.283
Stream size                 : 1.69 GiB (79%)
Writing library             : XviD 67

Audio #1
ID                          : 1
Format                      : MPEG Audio
Format version              : Version 1
Format profile              : Layer 3
Format settings             : Joint stereo
Codec ID                    : 55
Codec ID/Hint               : MP3
Duration                    : 2 h 43 min
Bit rate mode               : Constant
Bit rate                    : 192 kb/s
Channel(s)                  : 2 channels
Sampling rate               : 48.0 kHz
Frame rate                  : 41.667 FPS (1152 SPF)
Compression mode            : Lossy
Stream size                 : 224 MiB (10%)
Alignment                   : Aligned on interleaves
Interleave, duration        : 24  ms (0.58 video frame)
Writing library             : LAME3.99r
Encoding settings           : -m j -V 4 -q 5 -lowpass 18.6 -b 192

Audio #2
ID                          : 2
Format                      : MPEG Audio
Format version              : Version 1
Format profile              : Layer 3
Format settings             : Joint stereo
Codec ID                    : 55
Codec ID/Hint               : MP3
Duration                    : 2 h 43 min
Bit rate mode               : Constant
Bit rate                    : 192 kb/s
Channel(s)                  : 2 channels
Sampling rate               : 48.0 kHz
Compression mode            : Lossy
Stream size                 : 224 MiB (10%)
Alignment                   : Aligned on interleaves
Interleave, duration        : 24  ms (0.58 video frame)
Writing library             : LAME3.99.5U



Скриншоты:
[+] Всего файлов в раздаче - 3:

Похожие раздачи по запросу - время:
2022-01-18 U Джон Гришэм - Время прощать (2021) MP3 579.38 MB ↑ 40 ↓ 8
2022-01-16 U Левина Д. - Книга вдохновения. Сезонные рецепты, стиль и идеи домашнего декора на каждое время года (2022) PDF 11.95 MB ↑ 60 ↓ 30
2022-01-15 U Интимная жизнь во время оккупации / L'occupation intime (2011) DVB | P2 1.94 GB ↑ 217 ↓ 132
2022-01-01 U Уральские пельмени. Пир во время зимы [эфир от 31.12] (2021) WEBRip 1080p от DolgOFF 1.75 GB ↑ 349 ↓ 239
2021-12-22 U Не время умирать / No Time to Die (2021) BDRip-AVC от HELLYWOOD | iTunes 1.46 GB ↑ 74 ↓ 31
2021-12-21 U Не время умирать / No Time to Die (2021) Hybrid 1080p | D | IMAX | iTunes 6.67 GB ↑ 57 ↓ 51
2021-12-18 U Не время умирать / No Time to Die (2021) BDRip 1080p от Generalfilm | iTunes 11.41 GB ↑ 44 ↓ 47

Отзывы
Зарегистрируйтесь чтобы добавить комментарий.
Торрент клиент
byTorrent - программа для загрузки торрент-файлов.

Скачать byTorrent


Поддержи torrent.by
российских рублей
(300 российских рублей это 4$)

Обратная связь rss
End ©